<?xml version="1.0" standalone="no"?>
<!DOCTYPE svg PUBLIC "-//W3C//DTD SVG 1.1//EN" "http://www.w3.org/Graphics/SVG/1.1/DTD/svg11.dtd">
<svg xmlns="http://www.w3.org/2000/svg">
<metadata>Generated by Fontastic.me</metadata>
<defs>
<font id="conicle-icon" horiz-adv-x="512">
<font-face font-family="conicle-icon" units-per-em="512" ascent="480" descent="-32"/>
<missing-glyph horiz-adv-x="512" />

<glyph glyph-name="all-classes" unicode="&#98;" d="M448 384l0-299 43 0 0 299z m-85-299l42 0 0 299-42 0z m-214 235l-64 0 0-64 64 0z m150 64l-22 0 0 43-42 0 0-43-128 0 0 43-43 0 0-43-21 0c-13 0-22-9-22-21l0-256c0-2 0-2 0-2 2-11 11-20 22-20l256 0c10 0 19 9 21 20l0 258c0 12-11 21-21 21z m-22-256l-213 0 0 213 213 0z"/>
<glyph glyph-name="all-courses" unicode="&#99;" d="M299 384l-256 0c-13 0-22-11-22-21l0-256c0-11 9-22 22-22l256 0c10 0 21 11 21 22l0 256c0 10-11 21-21 21z m-173-224l0 145 102-72z m322 224l0-299 43 0 0 299z m-85-299l42 0 0 299-42 0z"/>
<glyph glyph-name="done" unicode="&#100;" d="M199 193l103 0 0-22-103 0z m-68 57l182 0 0-22-182 0z m205 141l-20 20-18-17 21-20 16-16 63 64-16 16z m11 122c-43 0-80-24-100-58l-153 0c-23 0-43-19-43-43l0-368c0-25 20-44 43-44l255 0c24 0 44 19 44 43l0 249c40 19 69 58 69 106 0 64-51 115-115 115z m23-467c0-7-16-23-23-23l-250 0c-7 0-23 16-23 23l0 364c0 6 16 22 23 22l140 0c-4-10-6-22-6-34 0-63 51-115 115-115 8 0 16 1 23 3l0-240z m-23 260c-51 0-92 41-92 92 0 51 41 92 92 92 51 0 92-41 92-92 0-51-41-92-92-92z"/>
<glyph glyph-name="todo" unicode="&#101;" d="M329 422l-237 0c-23 0-41-18-41-41l0-341c0-22 18-40 41-40l238 0c22 0 41 18 41 41l0 340c-1 23-19 41-42 41z m17-371c0-6-7-25-13-25l-243 0c-7 0-13 6-13 12l0 346c0 6 6 13 13 13l243 0c6 0 13-7 13-13z m74 461l-237 0c-23 0-41-18-41-41 0-8 6-14 14-14 8 0 14 6 14 14 0 8 3 15 9 15l243 0c7 0 13-6 13-12l0-346c0-6-7-10-15-10-8 0-14-7-14-14 0-8 6-14 14-14 22 0 41 18 41 41l0 340c0 23-18 41-41 41z m-292-282l166 0 0 26-166 0z m154-51l0 26-90 0 0-26z"/>
<glyph glyph-name="certificate" unicode="&#102;" d="M212 269l0 0 28-28 0 0 0 0 28 28 0 0 83 84-28 28-83-84-29 28-27-28z m162-104l0-165-118 98-118-98 0 164-57 13 6 73-48 55 48 55-6 73 71 16 37 63 67-29 67 29 37-63 71-16-6-73 48-55-48-55 6-72z"/>
<glyph glyph-name="pin" unicode="&#103;" d="M394 147l112 112c11 11 7 29-7 35-60 23-112 27-154 19-1 0-2-1-3-1l-135 114c1 21-3 41-11 58-4 9-8 16-12 20-8 10-22 11-31 2l-147-147c-9-9-8-24 2-32 8-6 17-11 27-15 17-6 34-8 49-7l116-136c0-1-1-2-1-4-7-43-3-96 20-152 5-14 24-18 35-7l110 111 111-111c8-8 22-8 30 0 9 9 9 22 0 30z"/>
<glyph glyph-name="testbank" unicode="&#104;" d="M42 51c0 136 0 272 0 408 3 3 6 7 9 10 78 0 156 0 233 0 4-3 7-6 11-9 22-22 45-45 67-68 5-4 7-9 7-16 0-105 0-211 0-317 0-8-2-14-10-17-102 0-205 0-308 0-3 3-6 6-9 9z m227 392c-68 0-135 0-202 0 0-125 0-251 0-376 93 0 185 0 276 0 0 101 0 200 0 301-1 0-3 0-4 0-19 0-38 0-57 0-7 0-12 4-13 11 0 1 0 3 0 5 0 19 0 39 0 59z m25-50c11 0 21 0 31 0-11 11-21 21-31 31 0-10 0-20 0-31z m175-266c-8-16-17-32-25-48-2-6-6-11-13-11-7 0-10 5-13 11-7 14-15 29-22 43-1 3-2 7-2 11 0 73 0 147 0 220 0 19 10 33 27 38 21 6 43-7 47-29 0-1 0-2 1-3 0-77 0-155 0-232z m-50 41c8 0 16 0 24 0 0 33 0 67 0 100-8 0-16 0-24 0 0-34 0-67 0-100z m24 149c-8 0-16 0-24 0 0-8 0-16 0-24 8 0 16 0 24 0 0 8 0 16 0 24z m-24 26c8 0 16 0 25 0 0 5 0 9 0 13-1 7-6 12-13 12-6 0-12-5-12-12-1-4 0-8 0-13z m0-200c0-4-1-7 0-10 3-8 8-16 12-24 0 0 1 0 1 0 3 11 14 20 11 34-7 0-14 0-21 0-1 0-2 0-3 0z m-290 205c14 14 27 27 40 40 4 4 9 6 14 4 8-3 12-12 6-19 0-1-1-2-2-3-16-16-31-31-47-47-7-7-14-7-21 0-8 8-16 15-23 23-7 8-4 19 6 21 5 2 8 0 12-3 5-6 10-11 15-16z m1-200c3 3 5 6 8 9 11 10 21 21 32 32 6 5 13 5 18 0 5-5 5-12 0-18-16-16-33-33-49-49-6-6-13-6-19 0-8 8-16 16-24 24-5 6-5 13 0 18 5 5 12 5 18 0 5-5 10-11 16-16z m-1 100c4 3 7 6 10 9 10 11 20 21 31 31 8 8 19 5 21-5 2-4 1-8-3-11-16-17-33-34-50-51-5-5-12-5-17 1-9 8-17 16-25 25-5 5-5 12 0 17 5 5 12 5 17 0 6-5 11-11 16-16z m138-130c-12 0-24 0-36 0-8 0-14 5-14 12 0 8 6 13 14 13 24 0 49 0 73 0 9 0 15-5 15-13 0-7-6-12-14-12-13 0-25 0-38 0z m1 225c12 0 24 0 36 0 9 0 15-5 15-13 0-7-6-12-15-12-24 0-48 0-73 0-8 0-14 5-14 12 0 8 6 13 14 13 13 0 25 0 37 0z m0-125c-12 0-25 0-37 0-8 0-14 5-14 12 0 8 6 13 14 13 25 0 49 0 73 0 9 0 15-5 15-13 0-7-6-12-15-12-12 0-24 0-36 0z"/>
<glyph glyph-name="live" unicode="&#105;" d="M115 108c-54 43-85 108-85 177 0 69 31 134 85 177 7 5 8 15 3 21-5 7-15 8-21 2-62-48-97-122-97-200 0-79 35-152 97-201 6-5 16-4 21 3 5 6 4 16-3 21z m300 377c-6 6-16 5-21-2-5-6-4-16 3-21 54-43 85-108 85-177 0-69-31-134-85-177-7-5-8-15-3-21 5-7 15-8 21-3 62 49 97 122 97 201 0 78-35 152-97 200z m-250-315c-35 28-55 70-55 115 0 45 20 86 55 114 7 6 8 15 3 21-5 7-15 8-21 3-43-34-67-84-67-138 0-54 24-104 67-138 6-5 16-4 21 2 5 7 4 16-3 21z m200 253c-6 5-16 4-21-3-5-6-4-15 3-21 35-28 55-69 55-114 0-45-20-87-55-115-7-5-8-14-3-21 5-6 15-7 21-2 43 34 67 84 67 138 0 54-24 104-67 138z m-109-63c-41 0-75-34-75-75 0-36 26-67 60-74l0-167c0-9 7-15 15-15 8 0 15 6 15 15l0 167c34 7 60 38 60 74 0 41-34 75-75 75z m0-120c-25 0-45 20-45 45 0 25 20 45 45 45 25 0 45-20 45-45 0-25-20-45-45-45z"/>
<glyph glyph-name="doing" unicode="&#97;" d="M230 256l116 0 0-26-116 0z m169 256l-286 0c-27 0-49-22-49-49l0-413c0-28 22-50 49-50l286 0c27 0 49 22 49 49l0 414c0 27-22 49-49 49z m23-461c0-7-18-25-25-25l-282 0c-7 0-25 18-25 25l0 410c0 7 18 25 25 25l282 0c7 0 25-18 25-25z m-268 269l204 0 0-26-204 0z"/>
<glyph glyph-name="verifying" unicode="&#106;" d="M235 404l0 65c-107-10-192-102-192-213 0-111 85-203 192-213l0 65c-64 11-128 73-128 148 0 75 64 137 128 148z m141-59l48 48c25-31 41-71 45-116l-64 0c-4 25-14 48-29 68z m-31 30c-20 15-43 25-68 29l0 65c46-4 85-20 116-45z m-68-267l0-65c107 10 182 85 192 192l-64 0c-9-64-64-117-128-127z"/>
<glyph glyph-name="qrcode" unicode="&#107;" d="M0 0l233 0 0 233-233 0z m47 186l139 0 0-139-139 0z m46-46l47 0 0-47-47 0z m279-93l47 0 0-47-47 0z m93 0l47 0 0-47-47 0z m0 139l-46 0 0 47-140 0 0-233 47 0 0 140 46 0 0-47 140 0 0 140-47 0z m-465 93l233 0 0 233-233 0z m47 186l139 0 0-139-139 0z m46-46l47 0 0-47-47 0z m186 93l0-233 233 0 0 233z m186-186l-139 0 0 139 139 0z m-93 93l47 0 0-47-47 0z"/>
<glyph glyph-name="lock-outline" unicode="&#109;" d="M399 341l-24 0 0 48c0 66-53 120-119 120-66 0-119-54-119-120l0-48-24 0c-27 0-48-21-48-47l0-239c0-27 21-48 48-48l286 0c27 0 48 21 48 48l0 239c0 26-21 47-48 47z m-215 48c0 40 32 72 72 72 40 0 72-32 72-72l0-48-144 0z m215-334l-286 0 0 239 286 0z m-143 71c26 0 48 22 48 48 0 26-22 48-48 48-26 0-48-22-48-48 0-26 22-48 48-48z"/>
<glyph glyph-name="send-mail" unicode="&#110;" d="M498 127c0 0 0 0 1 0l0 0c0 0 0 0 1 0 0 0 0 0 0 0 0 1 0 1 1 1 0 0 0 0 0 0 0 0 0 0 0 0l1 0c0 1 0 1 0 1 1 0 1 0 1 0 0 0 0 1 0 1 1 0 1 0 1 0l0 0c0 0 0 0 0 1 0 0 1 0 1 0 0 0 0 0 0 1 0 0 0 0 0 0 0 0 0 0 1 0 0 1 0 1 0 1l0 0c0 1 0 1 0 1 0 0 0 0 0 0 0 1 0 1 1 1 0 0 0 0 0 0 0 1 0 1 0 1 0 0 0 0 0 1 0 0 0 0 0 1l0 236c0 6-5 11-11 11l-347 0c0 0 0 0 0 0-1 0-2 0-4 0 0 0-1-1-2-1 0-1-1-1-1-1 0-1-1-1-1-1l0 0c0 0 0 0 0 0 0-1-1-1-1-1l0 0 0-1-1 0 0-1c0 0 0 0 0 0 0 0 0-1 0-1l0 0c-1 0-1-1-1-1 0 0 0 0 0 0l0-1c0 0 0 0 0 0l0-1c0 0 0 0 0 0l0-1 0-68c0-6 5-11 11-11 6 0 11 5 11 11l0 44 98-87c-1-1-1-1-2-2l-96-97 0 73c0 6-5 11-11 11-6 0-11-5-11-11l0-13-57 0c-6 0-11-5-11-11 0-7 5-12 11-12l57 0 0-63c0-6 5-11 11-11l347 0c0 0 1 0 1 0 0 0 0 0 0 0 1 0 1 0 1 0z m-13 37l-97 97c0 0 0 0 0 1l73 61c4 4 5 11 1 16-2 2-5 4-8 4-2 0-5-1-8-3l-123-105-145 128 307 0z m-213 82c1 1 1 1 2 2l41-36c4-4 10-4 15-1l42 36c0 0 0-1 1-1l96-97-293 0 96 97z m-261 15l183 0c3 0 6 2 8 4 2 2 3 4 3 7 0 6-5 11-11 11l-183 0c-6 0-11-5-11-11 0-6 5-11 11-11z m16 60l86 0c6 0 11 5 11 10 0 6-5 11-11 11l-86 0c-6 0-11-5-11-11 0-5 5-10 11-10z m64-146l-80 0c-6 0-11-5-11-11 0-6 5-10 11-10l80 0c7 0 11 4 11 10 0 6-4 11-11 11z"/>
<glyph glyph-name="mobile-sms" unicode="&#111;" d="M467 390l-135 0 0 77c0 25-20 45-45 45l-242 0c-25 0-45-20-45-45l0-422c0-25 20-45 45-45l242 0c25 0 45 20 45 45l0 84 51 51 84 0c25 0 45 20 45 45l0 120c0 25-20 45-45 45z m-437 77c0 8 7 15 15 15l242 0c8 0 15-7 15-15l0-15-272 0 0 15z m272-422c0-8-7-15-15-15l-242 0c-8 0-15 7-15 15l0 45 272 0 0-45z m0 75l-272 0 0 302 272 0 0-32-15 0c-25 0-45-20-45-45l0-120c0-25 20-45 45-45l15 0z m180 105c0-8-7-15-15-15l-90 0c-4 0-8-2-11-4l-34-35 0 24c0 8-7 15-15 15l-30 0c-8 0-15 7-15 15l0 120c0 8 7 15 15 15l180 0c8 0 15-7 15-15l0-120z m-47 102l-120 0c-8 0-15-6-15-14 0-7 7-13 15-13l120 0c8 0 15 6 15 13 0 8-7 14-15 14z m-61-62l-59 0c-8 0-15-6-15-13 0-8 7-14 15-14l59 0c8 0 14 6 14 14 0 7-6 13-14 13z"/>
<glyph glyph-name="policy" unicode="&#112;" d="M253 512c-20 0-39-6-56-17-27-19-59-34-90-41l-7-1c-35-7-61-37-61-73l0-109c0-40 11-79 33-115 15-26 36-50 61-73l32-27c1-1 2-2 3-3 28-23 52-36 78-39l7 0c26 0 51 12 79 35l7 5 26 23c28 25 51 51 68 79 22 36 33 75 33 115l0 109c0 44-13 64-61 73-33 6-67 22-97 42-17 11-36 17-55 17z m0-39c12 0 23-3 33-10 34-23 73-41 112-48l6-2c22-4 23-8 23-33l0-109c0-33-9-65-27-95-13-22-31-43-53-63l-33-29-1-1c-24-20-44-30-60-30l-1 0c-15 0-33 9-55 26l-4 4c-4 3-12 10-18 16l-9 8c-26 21-46 45-61 69-18 30-27 62-27 95l0 109c0 17 12 32 29 35 39 7 78 25 112 48 10 7 22 10 34 10z m-5-153c26 0 47-21 47-47l0-23 8 0c12 0 23-10 23-23l0-54c0-13-11-24-23-24l-109 0c-13 0-23 11-23 24l0 54c0 13 10 23 23 23l8 0 0 23c0 25 19 45 43 47z m55-85l-109 0c-4 0-8-4-8-8l0-54c0-5 4-8 8-8l109 0c4 0 7 3 7 8l0 54c0 4-3 8-7 8z m-55 69c-17 0-31-13-31-31l0-23 62 0 0 23c0 17-12 30-28 31z m-81 42c2 0 4 0 6 0 2 0 5 1 7 2l0 19-15 0 0-7 7 0 0-7c-1-1-3-1-5-1-3 0-5 1-7 3-2 3-3 6-3 10 0 4 2 7 4 9 2 2 4 3 8 3 3 0 6 0 8-2l3 7c-4 1-7 2-11 2-6 0-11-2-14-5-4-3-6-8-6-14 0-6 2-11 5-14 3-4 7-5 13-5z m59 0c6 0 11 2 15 5 3 3 5 8 5 14 0 6-2 10-5 14-3 3-8 4-14 4l-12 0 0-37z m0 7l-3 0 0 24 4 0c7 0 11-4 11-12 0-8-4-12-12-12z m62-7l0 13 3 0c5 0 8 1 11 4 2 2 4 5 4 9 0 4-1 7-4 9-2 1-6 2-10 2l-12 0 0-37z m2 20l-2 0 0 11 3 0c3 0 4 0 5-1 1-1 2-3 2-4 0-2-1-4-2-5-1-1-3-1-6-1z m57-20l0 14 4 0 9-14 9 0c-2 3-6 8-11 16 2 1 4 3 5 4 1 2 2 4 2 6 0 4-1 7-4 9-2 2-6 2-11 2l-11 0 0-37z m2 21l-2 0 0 10 2 0c3 0 5 0 6-1 1-1 2-2 2-4 0-2-1-3-2-4-1-1-3-1-6-1z"/>
<glyph glyph-name="achievement" unicode="&#113;" d="M467 512l-422 0c-25 0-45-20-45-45l0-23c0-37 13-73 36-102 19-24 46-43 77-53l16-5c18-30 47-54 82-65l0-23c0-8-7-15-15-15-25 0-45-20-45-45l0-15-15 0c-8 0-15-7-15-15l0-76-15 0c-8 0-15-7-15-15 0-8 7-15 15-15l300 0c8 0 15 7 15 15 0 8-7 15-15 15l-15 0 0 76c0 8-7 15-15 15l-15 0 0 15c0 25-20 45-45 45-8 0-15 7-15 15l0 23c35 11 64 34 82 64l17 6 0 0c30 10 56 28 76 53 23 29 36 65 36 102l0 23c0 25-20 45-45 45z m-408-151c-19 23-29 53-29 83l0 23c0 8 7 15 15 15l48 0 15-137c1-8 2-16 4-24-21 9-39 23-53 40z m92-331l0 61 210 0 0-61z m132 215c-7-1-12-7-12-14l0-35c0-25 20-45 45-45 8 0 15-7 15-15l0-15-150 0 0 15c0 8 7 15 15 15 25 0 45 20 45 45l0 35c0 7-5 13-12 14-49 12-86 53-91 103l-15 134 266 0-15-134c-5-50-42-91-91-103z m199 199c0-30-10-60-29-83-14-18-33-32-54-40 3 7 4 15 5 24l15 137 48 0c8 0 15-7 15-15z m-168-32l-35 5-16 30c-3 5-8 8-14 8-6 0-11-3-14-8l-16-30-35-5c-6-1-11-5-13-10-1-6 0-12 5-16l25-23-6-32c-1-6 1-12 6-15 5-4 11-4 16-1l32 15 31-15c6-3 12-3 17 1 5 3 7 9 6 15l-6 32 25 23c5 4 6 10 4 16-1 5-6 9-12 10z m-45-33c-3-3-5-8-4-13l2-11-11 6c-4 2-10 2-14 0l-11-6 2 11c1 5-1 10-5 13l-7 8 11 1c5 1 9 4 12 8l5 11 5-11c3-4 7-7 12-8l11-1-8-8z"/>
<glyph glyph-name="achievement-group" unicode="&#114;" d="M427 85l-342 0 0 256c0 12-9 22-21 22-12 0-21-10-21-22l0-277c0-12 9-21 21-21l384 0c12 0 21 9 21 21l0 277c0 12-9 22-21 22-12 0-21-10-21-22z m-427 363c0 12 10 21 21 21l470 0c11 0 21-9 21-21l0-107c0-11-10-21-21-21l-470 0c-11 0-21 10-21 21z m43-21l0-64 426 0 0 64z m271-193l-35 5-16 30c-3 5-8 8-14 8-6 0-11-3-14-8l-16-30-35-5c-6 0-11-4-13-10-1-5 0-11 5-15l25-24-6-32c-1-6 1-12 6-15 5-3 11-4 16-1l32 15 31-15c6-3 12-2 17 1 5 3 7 9 6 15l-6 32 25 24c5 3 6 10 4 15-1 6-6 10-12 10z m-45-32c-3-4-5-9-4-14l2-11-11 6c-4 2-10 2-14 0l-11-6 2 11c1 5-1 10-5 14l-7 7 11 1c5 1 9 4 12 9l5 10 5-10c3-5 7-8 12-9l11-1-8-7z"/>
<glyph glyph-name="challenge" unicode="&#115;" d="M474 390l25 24c4 5 6 11 4 16-2 6-7 9-13 10l-46 4-4 46c-1 6-4 11-10 13-5 2-11 0-16-4l-24-25c-41 25-87 38-134 38-68 0-133-27-181-75-48-48-75-113-75-181 0-68 27-133 75-181 48-48 113-75 181-75 68 0 133 27 181 75 48 48 75 113 75 181 0 47-13 93-38 134z m-59 39c1-8 6-13 14-14l26-2-36-36-39 3-3 39 36 36z m-108-173c0-28-23-51-51-51-28 0-51 23-51 51 0 28 23 51 51 51 9 0 17-2 24-6l-35-34c-5-6-5-16 0-22 3-3 7-4 11-4 4 0 8 1 11 4l34 35c4-7 6-15 6-24z m-5 67c-13 9-29 14-46 14-45 0-81-36-81-81 0-45 36-81 81-81 45 0 81 36 81 81 0 17-5 33-14 46l43 42c19-24 31-55 31-88 0-78-63-141-141-141-78 0-141 63-141 141 0 78 63 141 141 141 33 0 64-12 88-31z m114-227c-43-42-100-66-160-66-60 0-117 24-160 66-42 43-66 100-66 160 0 60 24 117 66 160 43 43 100 66 160 66 39 0 78-10 112-29l-17-17c-3-3-5-7-5-11 0 0 0-1 0-1l2-24c-26 17-58 27-92 27-94 0-171-77-171-171 0-94 77-171 171-171 94 0 171 77 171 171 0 34-10 66-27 92l24-2 1 0 0 0 1 0 1 0 0 1 1 0 1 0 1 0 0 0c1 0 1 1 1 1l1 0 1 0 0 1 1 0 0 1c1 0 1 0 2 1l17 17c19-34 29-73 29-112 0-60-24-117-66-160z"/>
<glyph glyph-name="star-circle" unicode="&#116;" d="M256 0c-68 0-133 27-181 75-48 48-75 113-75 181 0 68 27 133 75 181 48 48 113 75 181 75 68 0 133-27 181-75 48-48 75-113 75-181 0-51-15-100-43-142-7-9-19-12-28-6-9 7-12 19-6 28 24 36 37 77 37 120 0 119-97 216-216 216-119 0-216-97-216-216 0-119 97-216 216-216 40 0 78 11 112 31 9 6 21 3 27-7 6-9 3-21-7-27-39-24-85-37-132-37z m92 125c14 10 19 27 14 43l-17 52 45 33c14 10 19 27 14 44-5 16-20 27-37 27l-56 0-17 52c-5 16-20 27-37 27-17 0-32-11-37-27l-17-52-56 0c-17 0-32-11-37-27-5-17 0-34 14-44l45-33-17-52c-5-16 0-33 14-43 14-11 32-11 46 0l45 32 45-32c7-6 15-8 23-8 8 0 16 3 23 8z m-145 159c17 0 32 11 37 26l17 51 17-51c5-15 20-26 37-26l54 0-44-32c-14-10-19-27-14-43l16-51-43 32c-7 4-15 7-23 7-8 0-16-3-23-7l-43-32 16 51c5 16 0 33-14 43l-44 32z"/>
<glyph glyph-name="content-type" unicode="&#117;" d="M387 280c-6 10-19 10-25 0l-56-86 137 0-56 86z m-87-265c0-8 7-15 15-15l47 0 0 162-62 0z m93-15l42 0c8 0 15 7 15 15l0 147-57 0z m-299 181l93 0 0-31-93 0z m373 331l-422 0c-25 0-45-21-45-47l0-78 512 0 0 78c0 26-20 47-45 47z m-391-94c-8 0-15 7-15 16 0 9 7 16 15 16 8 0 15-7 15-16 0-9-7-16-15-16z m60 0c-8 0-15 7-15 16 0 9 7 16 15 16 8 0 15-7 15-16 0-9-7-16-15-16z m60 0c-8 0-15 7-15 16 0 9 7 16 15 16 8 0 15-7 15-16 0-9-7-16-15-16z m240 0l-90 0c-8 0-15 7-15 16 0 9 7 16 15 16l90 0c8 0 15-7 15-16 0-9-7-16-15-16z m-436-311c0-24 20-45 45-45l226 0 0 120c0 9 3 18 8 25 65 99 60 92 63 95l-266 0c-8 0-15 7-15 15 0 8 7 15 15 15l270 0c9 0 16-8 15-17 19 7 41-1 52-18l60-90c5-7 8-16 8-25l0-117c18 6 31 22 31 42l0 255-512 0z m76 165l210 0c8 0 15-6 15-15 0-8-7-15-15-15l-210 0c-8 0-15 7-15 15 0 9 7 15 15 15z m-15-75c0 9 7 15 15 15l120 0c8 0 15-6 15-15l0-60c0-8-7-15-15-15l-120 0c-8 0-15 7-15 15l0 60z"/>
<glyph glyph-name="competency-gap" unicode="&#118;" d="M298 141c31 0 57-24 58-54l0-4 0-23c0-7-5-12-12-12-7 0-12 4-13 10l0 2 0 23c0 17-13 31-30 32l-3 1-91 0c-17 0-30-13-32-30l0-3 0-23c0-7-6-12-13-12-6 0-12 4-12 10l-1 2 0 23c0 31 24 56 55 58l3 0z m-45 136c32 0 58-26 58-58 0-32-26-58-58-58-32 0-58 26-58 58 0 32 26 58 58 58z m0-25c-18 0-33-15-33-33 0-18 15-32 33-32 18 0 33 14 33 32 0 18-15 33-33 33z m-151 140c2-3 3-7 1-10l-1-2-18-17 151 0 2-1c5 0 8-5 8-10 0-5-3-10-8-10l-2-1-151 0 18-17c2-3 3-7 1-10l-1-2c-3-2-7-3-10-1l-2 1-34 34c-2 3-3 7-1 10l1 2 34 34c3 3 9 3 12 0z m320 0l34-34c3-3 3-9 0-12l-34-34c-3-3-9-3-12 0-3 4-3 9 0 12l18 17-65 0c-6 0-10 4-11 9l0 2c0 5 4 10 9 10l2 1 65 0-18 17c-3 3-3 8 0 12 3 3 9 3 12 0z m-102-29c6 0 11-5 11-11 0-5-4-10-9-10l-2-1-43 0-2 1c-5 0-8 5-8 10 0 5 3 10 8 10l2 1z"/>
<glyph glyph-name="competency-group" unicode="&#119;" d="M317 160c24-6 42-27 43-52l1-4 0-23c0-6-6-12-13-12-6 0-11 4-12 10l0 2 0 23c0 15-11 28-25 32-7 2-11 9-9 15 2 7 8 11 15 9z m59 0c25-6 42-27 44-52l0-4 0-23c0-6-6-12-13-12-6 0-11 4-12 10l0 2 0 23c0 15-10 28-25 32-7 2-11 9-9 15 2 7 9 11 15 9z m-142 2c31 0 56-24 58-54l0-4 0-23c0-6-5-12-12-12-6 0-12 4-13 10l0 2 0 23c0 17-13 31-30 33l-3 0-91 0c-17 0-31-13-33-30l0-3 0-23c0-6-5-12-12-12-6 0-12 4-13 10l0 2 0 23c0 31 24 56 55 58l3 0z m-45 137c32 0 58-26 58-58 0-32-26-58-58-58-32 0-58 26-58 58 0 32 26 58 58 58z m83-2c25-7 43-30 43-56 0-27-18-50-43-57-7-1-14 3-16 9-1 7 3 14 9 16 15 3 25 17 25 32 0 15-10 28-25 32-6 1-10 8-9 15 2 6 9 11 16 9z m63 0c26-7 44-30 44-56 0-27-18-50-44-57-7-1-13 3-15 9-2 7 2 14 9 16 14 3 25 17 25 32 0 15-11 28-25 32-7 1-11 8-9 15 2 6 8 11 15 9z m-146-23c-18 0-33-15-33-33 0-19 15-33 33-33 18 0 33 14 33 33 0 18-15 33-33 33z m72 171l16-32 34-5c5 0 7-6 3-9l-25-25 6-35c1-4-4-7-8-5l-31 16-31-16c-4-2-9 1-8 5l6 35-25 25c-4 3-2 9 3 9l34 5 16 32c2 4 8 4 10 0z m-5-15l-12-24c-1-2-2-3-4-3l-27-4 19-19c2-1 2-3 2-5l-5-26 24 12c2 1 4 1 6 0l24-12-5 26c0 2 0 4 2 5l19 19-27 4c-2 0-3 1-4 3z"/>
<glyph glyph-name="competency-master" unicode="&#120;" d="M298 162c31 0 57-24 58-54l0-4 0-22c0-7-5-13-12-13-7 0-12 4-13 11l0 2 0 22c0 17-13 31-30 33l-3 0-91 0c-17 0-30-13-32-30l0-3 0-22c0-7-6-13-13-13-6 0-12 4-12 11l-1 2 0 22c0 31 24 57 55 58l3 0z m-45 137c32 0 58-26 58-58 0-33-26-59-58-59-32 0-58 26-58 59 0 32 26 58 58 58z m0-26c-18 0-33-14-33-32 0-19 15-33 33-33 18 0 33 14 33 33 0 18-15 32-33 32z m-1 175c2 0 4-1 5-2l33-38 35 17c2 1 5 1 7-1 2-2 3-4 2-7l-24-79c-1-3-4-5-6-5l-103 0c-2 0-5 2-6 5l-24 79c-1 3 0 5 2 7 2 2 5 2 7 1l35-17 33 38c1 1 3 2 4 2z m0-16l-31-36c-2-2-5-3-7-2l-27 13 19-61 93 0 18 61-26-13c-2-1-5 0-7 2z"/>
<glyph glyph-name="competency-rating" unicode="&#121;" d="M307 139c30 0 56-24 58-54l0-4 0-22c0-7-6-13-13-13-6 0-12 4-13 11l0 2 0 22c0 17-13 31-30 33l-2 0-91 0c-17 0-31-13-33-30l0-3 0-22c0-7-6-13-13-13-6 0-11 4-12 11l0 2 0 22c0 31 24 57 54 58l4 0z m-46 137c32 0 58-26 58-59 0-32-26-58-58-58-32 0-58 26-58 58 0 33 26 59 58 59z m0-26c-18 0-33-14-33-33 0-18 15-32 33-32 18 0 33 14 33 32 0 19-15 33-33 33z m-153 118l15-31 35-5c5-1 7-7 3-10l-25-24 6-35c1-5-4-8-8-6l-31 17-31-17c-4-2-9 1-8 6l6 35-26 24c-3 3-1 9 3 10l35 5 16 31c2 4 8 4 10 0z m306 0l16-31 35-5c4-1 6-7 3-10l-26-24 6-35c1-5-4-8-8-6l-31 17-31-17c-4-2-9 1-8 6l6 35-25 24c-4 3-2 9 3 10l35 5 15 31c2 4 8 4 10 0z m-311-14l-12-25c-1-1-3-2-4-3l-27-4 19-19c2-1 2-3 2-4l-5-27 24 13c2 0 4 0 5 0l24-13-4 27c-1 1 0 3 1 4l20 19-27 4c-2 1-3 2-4 3z m306 0l-12-25c-1-1-2-2-4-3l-27-4 20-19c1-1 2-3 1-4l-4-27 24 13c1 0 3 0 5 0l24-13-5 27c0 1 0 3 2 4l19 19-27 4c-1 1-3 2-4 3z m-148 91l16-32 34-5c5 0 7-6 3-9l-25-25 6-35c1-4-4-7-8-5l-31 16-31-16c-4-2-9 1-8 5l6 35-25 25c-4 3-2 9 3 9l34 5 16 32c2 4 8 4 10 0z m-5-15l-12-24c-1-2-2-3-4-3l-27-4 19-19c2-1 2-3 2-5l-5-26 24 12c2 1 4 1 6 0l24-12-5 26c0 2 0 4 2 5l19 19-27 4c-2 0-3 1-4 3z"/>
<glyph glyph-name="app-store" unicode="&#122;" d="M407 512l-302 0c-58 0-105-47-105-105l0-302c0-58 47-105 105-105l302 0c58 0 105 47 105 105l0 302c0 58-47 105-105 105z m-249-395c-5-8-13-12-22-12-4 0-9 1-12 3-12 7-17 23-10 34l5 9 58 0-19-33z m-47 54c-14 0-25 11-25 25 0 14 11 25 25 25l49 0 67 117-18 31c-7 12-3 28 9 35 12 7 27 2 34-10l4-6 4 6c7 12 22 17 34 10 6-4 10-9 12-16 1-6 0-13-3-19l-86-148 54 0 29-50-190 0z m290 0l-20 0 17-29c7-11 2-27-9-34-4-2-9-3-13-3-2 0-4 0-6 1-7 2-12 6-16 11l-86 151 28 50 56-97 49 0c14 0 25-11 25-25 0-14-11-25-25-25z"/>
<glyph glyph-name="conicle-store" unicode="&#65;" d="M256 512c25 0 50-10 68-28 18-18 28-42 28-68l0-32 48 0c8 0 15-6 16-15l27-299c2-18-4-36-16-49-12-13-30-21-47-21l-248 0c-17 0-35 8-47 21-12 13-18 31-16 49l27 299c1 9 8 15 16 15l48 0 0 32c0 53 43 96 96 96z m-39-233c-53 0-97-44-97-98 0-22 8-42 20-58 17-24 46-39 77-39 26 0 49 10 66 26 11-16 29-26 49-26 34 0 61 27 61 61 0 33-27 61-61 61-7 0-14-2-20-4-17-6-30-20-36-36-1-2-2-4-2-6-8-23-31-40-57-40-21 0-40 12-51 29-6 9-9 20-9 32 0 34 27 61 60 61 12 0 23-3 32-9l26 26c-16 13-36 20-58 20z m115-106c16 0 28-13 28-28 0-16-12-28-28-28-11 0-20 7-25 16-1 4-2 8-2 12 0 10 5 19 13 24 4 2 9 4 14 4z m-76 307c-35 0-64-29-64-64l0-32 128 0 0 32c0 17-7 33-19 45-12 12-28 19-45 19z"/>
<glyph glyph-name="play-store" unicode="&#66;" d="M407 512l-302 0c-58 0-105-47-105-105l0-302c0-58 47-105 105-105l302 0c58 0 105 47 105 105l0 302c0 58-47 105-105 105z m-127-261l56-51-155-83c-5-3-12-5-18-5-7 0-13 2-19 5z m-147 133l134-123-134-133c-3 5-5 11-5 17l0 221c0 7 2 13 5 18z m210-75l43-23c12-6 19-18 19-30 0-13-7-24-19-31l-32-17-61 54z m-199 92c12 6 25 6 37 0l144-79-45-45z"/>
<glyph glyph-name="cart" unicode="&#68;" d="M21 500c-12 0-21-10-21-21 0-12 9-22 21-22l68 0 17-88c0 0 0-1 1-1l35-177c3-15 11-28 23-38 11-9 26-14 40-14l206 0c15 0 29 5 41 14 12 10 20 23 22 38l1 0 33 178c2 6 0 12-4 17-4 5-10 8-16 8l-343 0-18 89c-2 10-11 17-21 17z m163-301l-31 152 309 0-29-152c-1-5-4-9-8-13-3-3-8-4-13-4l-1 0-206 0 0 0c-5 0-10 1-14 4-4 4-6 8-7 13z m-36-144c0 23 19 42 43 42 23 0 42-19 42-42 0-24-19-43-42-43-24 0-43 19-43 43z m234 0c0 23 19 42 42 42 23 0 42-19 42-42 0-24-19-43-42-43-23 0-42 19-42 43z"/>
<glyph glyph-name="app-zoom" unicode="&#69;" d="M289 363c29 0 52-27 52-59l0-147c0-16-11-29-26-29l-220 0c-29 0-52 26-52 59l0 146c0 17 11 30 26 30z m148-20c14 9 32-1 32-18l0-159c0-17-18-27-32-19l-64 39c-6 4-10 11-10 18l0 83c0 7 4 14 10 18z m-146-12l-221 0 0-147c0-16 12-29 26-29l221 0 0 146c0 17-12 30-26 30z m148-28l-43-25 0-71 43-25z"/>
<glyph glyph-name="youtube" unicode="&#70;" d="M492 380c-5 22-22 39-44 44-39 11-197 11-197 11 0 0-157 0-196-10-21-6-39-23-45-45-10-39-10-121-10-121 0 0 0-82 10-121 6-21 23-38 45-44 39-11 196-11 196-11 0 0 158 0 197 11 22 5 39 22 44 44 11 39 11 121 11 121 0 0 0 82-11 121z m-291-196l0 151 131-76z"/>
<glyph glyph-name="send" unicode="&#71;" d="M486 489l1 0c0 0 1 0 1 0 2-1 4-3 6-4l0-1c0 0 0 0 0 0 2-2 4-4 5-6 0 0 0 0 0 0 2-5 2-10 1-15 0 0 0 0-1 0 0-1 0-1 0-1l-152-426c-7-19-32-20-40-2l-84 184-188 82c-18 8-17 34 1 40l436 149 0 1c0 0 1 0 1 0l-1-1c1 1 2 1 3 1 0 0 0 0 0 0 4 1 8 1 11-1z m-59-101l-162-158 59-130z m-31 30l-293-100 132-58z"/>
<glyph glyph-name="mail-notify" unicode="&#72;" d="M491 370c13 15 21 35 21 57 0 47-38 85-85 85-40 0-74-27-83-64l-259 0c-35 0-64-29-64-64l0-256c0-35 29-64 64-64l342 0c35 0 64 29 64 64z m-147 35c6-23 21-42 42-53l-130-91-190 133c4 6 11 11 19 11z m-76-188l180 126 0-215c0-12-10-21-21-21l-342 0c-11 0-21 9-21 21l0 215 180-126c7-5 17-5 24 0z m137 252c0 12 10 22 22 22 11 0 21-10 21-22l0-21c0-12-10-21-21-21-12 0-22 9-22 21z m22-64c-12 0-22-9-22-21 0-12 10-21 22-21 11 0 21 9 21 21 0 12-10 21-21 21z"/>
<glyph glyph-name="layer" unicode="&#73;" d="M441 176c10 5 21 1 26-8 5-10 1-22-8-26l-194-97c-6-3-12-3-18 0l-194 97c-9 4-13 16-8 26 5 9 16 13 26 8l185-92z m0 97c10 5 21 1 26-8 5-10 1-22-8-26l-194-97c-6-3-12-3-18 0l-194 97c-9 4-13 16-8 26 5 9 16 13 26 8l185-92z m-194 194c6 3 12 3 18 0l194-97c14-7 14-27 0-34l-194-97c-6-3-12-3-18 0l-194 97c-14 7-14 27 0 34z m9-39l-151-75 151-75 151 75z"/>
<glyph glyph-name="ic-v2-class-program" unicode="&#75;" d="M452 468c-16 3-31 4-47 4-53 0-104-15-149-44-45 29-96 43-149 43-16 0-31-1-47-4-5-1-9-4-12-7-4-4-5-9-5-14l0-256c0-3 0-7 2-9 1-3 3-6 5-8 3-2 5-3 8-4 3-1 7-1 10-1 30 6 62 5 92-2 30-7 58-20 84-38l2-2 3 0c2-1 4-1 7-1 3 0 5 0 7 1l3 0 2 2c25 18 54 32 84 39 30 7 62 9 92 4 3-1 7-1 10 0 3 1 5 2 8 4 2 3 4 5 5 8 2 3 2 6 2 9l0 256c0 5-2 9-5 13-3 4-8 6-12 7z m-217-283c-40 20-84 31-128 31-7 0-14 0-22 0l0 213c7 1 15 1 22 0 45 0 90-13 128-38z m192 30c-8 0-15 0-22 0-44 0-88-11-128-31l0 207c38 25 83 38 128 38 7 1 15 1 22 0z m25-88c-16 2-31 4-47 4-53 0-104-15-149-44-45 29-96 44-149 44-16 0-31-2-47-4-2-1-5-2-7-3-3-2-5-4-7-6-1-2-2-5-3-7-1-3-1-6 0-9 1-5 4-10 9-13 4-4 10-5 16-4 30 6 62 5 92-2 30-7 58-20 84-38 3-3 8-4 12-4 4 0 9 1 12 4 26 18 54 31 84 38 30 7 62 8 92 2 6-1 12 0 16 4 5 3 8 8 9 13 1 3 1 6 0 9-1 2-2 5-3 7-2 2-4 4-7 6-2 1-5 2-7 3z"/>
<glyph glyph-name="ic-v2-event" unicode="&#79;" d="M405 427l-42 0 0 21c0 6-3 11-7 15-4 4-9 6-15 6-5 0-11-2-15-6-4-4-6-9-6-15l0-21-128 0 0 21c0 6-2 11-6 15-4 4-10 6-15 6-6 0-11-2-15-6-4-4-7-9-7-15l0-21-42 0c-17 0-34-7-46-19-12-12-18-28-18-45l0-256c0-17 6-34 18-46 12-12 29-18 46-18l298 0c17 0 34 6 46 18 12 12 18 29 18 46l0 256c0 17-6 33-18 45-12 12-29 19-46 19z m22-320c0-6-3-11-7-15-4-4-9-7-15-7l-298 0c-6 0-11 3-15 7-4 4-7 9-7 15l0 149 342 0z m0 192l-342 0 0 64c0 5 3 11 7 15 4 4 9 6 15 6l42 0 0-21c0-6 3-11 7-15 4-4 9-7 15-7 5 0 11 3 15 7 4 4 6 9 6 15l0 21 128 0 0-21c0-6 2-11 6-15 4-4 10-7 15-7 6 0 11 3 15 7 4 4 7 9 7 15l0 21 42 0c6 0 11-2 15-6 4-4 7-10 7-15z"/>
<glyph glyph-name="ic-v2-public-request" unicode="&#84;" d="M316 496c-74 0-135-61-135-135 0-74 61-135 135-135 74 0 135 61 135 135 0 74-61 135-135 135z m104-120l-44 0c-1 26-6 56-16 80 32-14 55-44 60-80z m-104-120c-17 0-28 65-30 90l60 0c-2-32-14-90-30-90z m-30 120c2 32 14 90 30 90 17 0 28-65 30-90z m-14 80c-10-24-14-54-16-80l-44 0c5 36 29 66 60 80z m-60-110l44 0c2-26 6-56 16-80-31 14-55 44-60 80z m148-80c10 24 15 54 16 80l44 0c-5-36-28-66-60-80z m-345-220l91 0c8 0 15 7 15 15l0 13c27-3 53-11 77-23 49-25 82-35 110-35 1 0 1 0 1 0 48 0 85 26 126 73 17 16 63 77 74 90 5 6 4 15-2 21-31 27-78 23-105-9l-21-24c-54 4-81 20-105 36-19 12-38 24-66 25-28 1-61-9-108-32l-87 0c-8 0-15-7-15-15l0-120c0-8 7-15 15-15z m410 126c13 15 34 19 50 13-11-15-22-29-32-41-5 9-13 17-24 20 7 9 6 8 6 8z m-165 5c30-18 66-41 144-41 13 0 14-11 14-15 0-8-4-15-15-15-53 0-112 18-113 18-8 2-16-2-18-10-3-8 2-17 10-19 2-1 48-15 99-18-24-21-47-31-72-31 0 0 0 0-1 0-23 0-52 9-97 32-28 14-58 23-90 26l0 68c83 40 105 27 139 5z m-230-11l61 0 0-90-61 0z"/>
<glyph glyph-name="ic-v2-schedule-learning-path" unicode="&#86;" d="M256 107c4 0 8 1 12 3 3 3 6 6 8 10 1 4 2 8 1 12-1 4-3 8-6 11-3 3-7 5-11 6-4 1-8 0-12-1-4-2-7-5-10-8-2-4-3-8-3-12 0-6 2-11 6-15 4-4 9-6 15-6z m107 0c4 0 8 1 12 3 3 3 6 6 7 10 2 4 2 8 2 12-1 4-3 8-6 11-3 3-7 5-11 6-4 1-9 0-12-1-4-2-8-5-10-8-2-4-4-8-4-12 0-6 3-11 7-15 4-4 9-6 15-6z m0 85c4 0 8 1 12 4 3 2 6 5 7 9 2 4 2 8 2 12-1 5-3 8-6 11-3 3-7 5-11 6-4 1-9 1-12-1-4-2-8-4-10-8-2-3-4-7-4-12 0-5 3-11 7-15 4-4 9-6 15-6z m-107 0c4 0 8 1 12 4 3 2 6 5 8 9 1 4 2 8 1 12-1 5-3 8-6 11-3 3-7 5-11 6-4 1-8 1-12-1-4-2-7-4-10-8-2-3-3-7-3-12 0-5 2-11 6-15 4-4 9-6 15-6z m149 256l-21 0 0 21c0 6-2 11-6 15-4 4-10 7-15 7-6 0-11-3-15-7-4-4-7-9-7-15l0-21-170 0 0 21c0 6-3 11-7 15-4 4-9 7-15 7-5 0-11-3-15-7-4-4-6-9-6-15l0-21-21 0c-17 0-34-7-46-19-12-12-18-28-18-45l0-299c0-17 6-33 18-45 12-12 29-19 46-19l298 0c17 0 34 7 46 19 12 12 18 28 18 45l0 299c0 17-6 33-18 45-12 12-29 19-46 19z m22-363c0-5-3-11-7-15-4-4-9-6-15-6l-298 0c-6 0-11 2-15 6-4 4-7 10-7 15l0 192 342 0z m0 235l-342 0 0 64c0 6 3 11 7 15 4 4 9 6 15 6l21 0 0-21c0-6 2-11 6-15 4-4 10-6 15-6 6 0 11 2 15 6 4 4 7 9 7 15l0 21 170 0 0-21c0-6 3-11 7-15 4-4 9-6 15-6 5 0 11 2 15 6 4 4 6 9 6 15l0 21 21 0c6 0 11-2 15-6 4-4 7-9 7-15z m-278-128c5 0 9 1 12 4 4 2 6 5 8 9 2 4 2 8 1 12-1 5-3 8-6 11-3 3-6 5-11 6-4 1-8 1-12-1-4-2-7-4-9-8-3-3-4-7-4-12 0-5 2-11 6-15 4-4 10-6 15-6z m0-85c5 0 9 1 12 3 4 3 6 6 8 10 2 4 2 8 1 12-1 4-3 8-6 11-3 3-6 5-11 6-4 1-8 0-12-1-4-2-7-5-9-8-3-4-4-8-4-12 0-6 2-11 6-15 4-4 10-6 15-6z"/>
<glyph glyph-name="ic-v2-class" unicode="&#49;" d="M363 448c49 0 90-21 108-31 13-8 20-22 20-35l0-298c0-26-28-39-49-29-17 8-46 20-79 20-41 0-76-18-90-26-5-3-11-4-17-4-6 0-12 2-17 5-14 8-49 27-90 27-32 0-61-12-79-21-11-6-23-5-32 0-9 5-17 16-17 29l0 297c0 7 2 14 6 20 3 6 8 11 14 15 18 10 59 31 108 31 34 0 64-10 85-19 9-4 16-8 22-11 6 3 13 7 22 11 21 9 51 19 85 19z m0-43c-26 0-50-7-67-15-7-3-13-6-19-9l0-282c22 9 52 18 86 18 34 0 64-9 85-18l0 282c-16 9-48 24-85 24z m-214 0c-37 0-69-15-85-24l0-281c21 10 51 19 85 19 34 0 64-9 86-19l0 281c-6 3-12 6-19 9-17 8-41 15-67 15z"/>
<glyph glyph-name="ic-v2-survey" unicode="&#51;" d="M122 244c67 0 121-55 121-121 0-67-54-121-121-121-66 0-121 54-121 121 0 66 55 121 121 121z m0-28c-51 0-93-42-93-93 0-51 42-93 93-93 52 0 93 42 93 93 0 51-41 93-93 93z m-2-97c21 0 40-11 51-28 4-8 1-17-6-21-2-1-5-2-7-2-5 0-10 3-13 7-5 9-15 14-25 14-10 0-19-5-25-14-4-7-13-9-20-5-7 4-10 13-5 21 10 17 30 28 50 28z m339 45c24 0 43-18 45-41l0-3 0-1c0-24-18-43-42-45l-3 0-158 0c-24 0-43 18-45 41l0 4 0 1c0 23 18 43 42 44l3 0z m3-29l-167 0c-8 0-14-6-15-13l0-2 0 0c0-8 5-14 13-15l2 0 55 0 0 30 26 0 0-30 86 0c8 0 14 6 15 13l0 2 0 0c0 8-6 14-13 15z m-375 32c8 0 15-6 15-15 0-8-7-15-15-15-8 0-15 7-15 15 0 9 7 15 15 15z m66 0c9 0 15-6 15-15 0-8-6-15-15-15-8 0-15 7-15 15 0 9 7 15 15 15z m-31 346c67 0 121-54 121-121 0-67-54-121-121-121-66 0-121 54-121 121 0 67 55 121 121 121z m0-28c-51 0-93-42-93-93 0-51 42-93 93-93 52 0 93 42 93 93 0 51-41 93-93 93z m43-106c7-4 10-13 6-21-11-17-30-28-51-28-20 0-40 11-50 28-5 8-2 17 5 21 7 4 16 2 20-5 6-9 15-14 25-14 10 0 20 5 25 14 4 7 13 9 20 5z m294 58c24 0 43-18 45-41l0-3 0-2c0-23-18-43-42-44l-3 0-158 0c-24 0-43 18-45 41l0 3 0 2c0 23 18 43 42 44l3 0z m-57-30l-107 0c-8 0-14-6-15-13l0-2 0 0c0-8 5-14 13-15l2 0 167 0c8 0 14 6 15 13l0 2 0 0c0 8-6 14-13 15l-2 0-34 0 0-30-26 0z m-315 32c8 0 15-7 15-15 0-8-7-15-15-15-8 0-15 7-15 15 0 8 7 15 15 15z m66 0c9 0 15-7 15-15 0-8-6-15-15-15-8 0-15 7-15 15 0 8 7 15 15 15z"/>
<glyph glyph-name="ic-v2-test-bank" unicode="&#52;" d="M405 448c17 0 34-7 46-19 12-12 18-28 18-45l0-43c0-5-2-11-6-15-4-4-9-6-15-6l0-192c0-17-7-33-19-45-12-12-28-19-45-19l-256 0c-17 0-33 7-45 19-12 12-19 28-19 45l0 192c-6 0-11 2-15 6-4 4-6 10-6 15l0 43c0 17 6 33 18 45 12 12 29 19 46 19z m0-128l-298 0 0-192 0-3c0-4 3-9 6-12 4-4 9-6 15-6l256 0 3 0c4 0 9 3 12 6 4 4 6 9 6 15z m-85-64c6 0 11-2 15-6 4-4 6-10 6-15 0-6-2-11-6-15-4-4-9-7-15-7l-128 0-3 1c-4 0-9 2-12 6-4 4-6 9-6 15 0 5 2 11 6 15 4 4 9 6 15 6z m85 149l-298 0c-6 0-11-2-15-6-4-3-6-8-6-12l-1-3 0-21 342 0 0 21c0 6-3 11-7 15-4 4-9 6-15 6z"/>
<glyph glyph-name="ic-v2-course" unicode="&#53;" d="M256 491c130 0 235-105 235-235 0-130-105-235-235-235-130 0-235 105-235 235 0 130 105 235 235 235z m0-43c-106 0-192-86-192-192 0-106 86-192 192-192 106 0 192 86 192 192 0 106-86 192-192 192z m-64-107c0 17 19 28 33 18l128-85c13-9 13-27 0-36l-128-85c-14-10-33 1-33 18z m43-40l0-90 68 45z"/>
<glyph glyph-name="ic-v2-activity" unicode="&#108;" d="M477 491c-10 0-322 0-331 0-8 0-14-6-14-14l0-166c0-8 6-14 14-14l44 0c5-16 21-27 39-27 17 0 33 11 38 27l88 0c5-16 21-27 39-27 17 0 33 11 38 27l45 0c8 0 14 6 14 14l0 166c0 8-6 14-14 14z m-221-166c-8 0-14-6-14-14 0-8-6-14-13-14-8 0-14 6-14 14 0 8-6 14-14 14l-41 0 0 138 137 0 0-31c-16-5-27-21-27-39 0-17 11-33 27-38l0-30z m207 0l-42 0c-8 0-14-6-14-14 0-8-6-14-13-14-8 0-14 6-14 14 0 8-6 14-14 14l-41 0 0 41c0 8-6 14-14 14-8 0-14 6-14 13 0 8 6 14 14 14 8 0 14 6 14 14l0 42 138 0z m14-83l-56 0c-8 0-14-6-14-14 0-7-6-13-13-13-8 0-14 6-14 13 0 8-6 14-14 14l-55 0c-8 0-14-6-14-14l0-43c-16-6-27-21-27-39 0-18 11-33 27-39l0-44c0-8 6-14 14-14l44 0c5-16 21-28 39-28 17 0 33 12 38 28l45 0c8 0 14 6 14 14l0 165c0 8-6 14-14 14z m-14-166l-42 0c-8 0-14-6-14-13 0-8-6-14-13-14-8 0-14 6-14 14 0 7-6 13-14 13l-41 0 0 42c0 8-6 14-14 14-8 0-14 6-14 14 0 8 6 14 14 14 8 0 14 6 14 13l0 42 30 0c5-16 21-28 39-28 17 0 33 12 38 28l31 0z m-414 31l0-44c0-8 6-14 14-14l166 0c7 0 13 6 13 14l0 55c0 8-6 14-13 14-8 0-14 6-14 14 0 8 6 14 14 14 7 0 13 6 13 13l0 55c0 8-6 14-13 14l-55 0c-8 0-14-6-14-14 0-7-6-13-14-13-8 0-14 6-14 13 0 8-6 14-13 14l-56 0c-8 0-14-6-14-14l0-43c-16-6-28-21-28-39 0-18 12-33 28-39z m14 53c7 0 13 6 13 13l0 42 31 0c6-16 21-28 39-28 18 0 33 12 39 28l30 0 0-30c-16-6-28-21-28-39 0-18 12-33 28-39l0-31-139 0 0 42c0 8-6 14-13 14-8 0-14 6-14 14 0 8 6 14 14 14z"/>
<glyph glyph-name="ic-v2-coniclex" unicode="&#76;" d="M129 200c21-31 57-51 98-51 15 0 31 3 44 8 10 3 21 1 27-7l15-18c9-10 6-25-6-30-24-11-51-17-80-17-60 0-114 27-147 69-24 28-37 64-37 102 0 94 82 171 184 171 32 0 62-8 88-21 12-6 13-22 3-32l-19-17c-6-6-17-7-25-4-15 6-31 10-49 10-62-1-112-48-113-106 0-21 6-41 17-57z m288-106c-7 0-13 3-17 8l-151 183c-12 14-2 35 16 35l27 0c6 0 12-3 16-8l32-40c9-11 26-10 34 1l27 38c4 6 10 9 17 9l30 0c17 0 27-20 17-34l-51-72c-6-8-5-18 1-26l47-59c11-14 1-35-17-35z"/>
<glyph glyph-name="ic-v2-learning-path" unicode="&#80;" d="M150 460c14-9 25-22 31-38l150 0c5 13 14 25 25 34 12 8 26 13 40 13 15 1 29-3 41-11 12-8 21-19 27-33 5-13 7-28 4-42-3-14-10-27-21-36-10-10-23-17-38-19-14-2-28 0-41 6l-190-190c1-2 2-4 3-7l150 0c6 16 17 30 31 38 15 9 32 12 48 9 17-3 32-12 43-24 10-13 16-29 16-46 0-17-6-33-16-46-11-13-26-21-43-24-16-3-33 0-48 8-14 9-25 22-31 38l-150 0c-5-13-14-25-25-34-12-8-26-13-40-13-15-1-29 3-41 11-12 8-21 19-27 33-5 13-7 27-4 42 3 14 10 26 21 36 10 10 23 17 38 19 14 2 28 0 41-6l190 190c-1 2-2 4-3 6l-150 0c-6-15-17-29-31-37-15-9-32-12-48-9-17 3-32 12-43 24-10 13-16 29-16 46 0 17 6 33 16 46 11 13 26 21 43 24 16 3 33 0 48-8z m-36-323c-6 0-13-2-17-6-4-5-7-11-7-17 0-7 3-13 7-17 4-4 11-7 17-7 6 0 12 3 17 7 4 4 7 10 7 17 0 6-3 12-7 17-5 4-11 6-17 6z m284 0c-6 0-12-2-17-6-4-5-6-11-6-17 0-7 2-13 6-17 5-4 11-7 17-7 7 0 13 3 17 7 4 4 7 10 7 17 0 6-3 12-7 17-4 4-10 6-17 6z m-284 285c-6 0-13-3-17-7-4-5-7-11-7-17 0-6 3-12 7-17 4-4 11-7 17-7 6 0 12 3 17 7 4 5 7 11 7 17 0 6-3 12-7 17-5 4-11 7-17 7z m284 0c-6 0-12-3-17-7-4-5-6-11-6-17 0-6 2-12 6-17 5-4 11-7 17-7 7 0 13 3 17 7 4 5 7 11 7 17 0 6-3 12-7 17-4 4-10 7-17 7z"/>
<glyph glyph-name="ic-v2-live" unicode="&#81;" d="M133 421c8-7 9-20 1-28-33-33-51-79-51-126 0-48 18-93 51-127 8-8 7-20-1-28-8-7-20-7-28 1-40 41-62 96-62 154 0 57 22 113 62 154 8 7 20 8 28 0z m274 0c40-41 62-97 62-154 0-58-22-113-62-154-8-8-20-8-28-1-8 8-9 20-1 28 33 34 51 79 51 127 0 47-18 93-51 126-8 8-7 21 1 28 8 8 20 7 28 0z m-55-57c13-12 23-28 30-45 7-16 10-34 10-52 0-19-3-37-10-53-7-17-17-32-30-45-7-8-20-8-28-1-8 8-8 20-1 28 9 9 16 20 21 32 5 12 8 25 8 39 0 13-3 26-8 38-5 12-12 23-21 32-7 8-7 20 1 28 8 8 21 7 28-1z m-164 1c8-7 8-20 1-28-9-9-16-20-21-32-5-12-8-25-8-38 0-13 3-26 8-38 5-13 12-23 21-33 7-8 7-20-1-28-8-7-21-7-28 1-13 13-23 28-30 45-7 17-10 35-10 53 0 18 3 36 10 53 7 16 17 32 30 45 7 8 20 8 28 0z m68-39c33 0 59-27 59-59 0-32-26-60-59-60-33 0-59 28-59 60 0 32 26 59 59 59z m0-40c-9 0-18-8-18-19 0-12 9-20 18-20 9 0 18 8 18 20 0 11-9 19-18 19z"/>
<glyph glyph-name="ic-v2-onboard" unicode="&#48;" d="M255 300c33 0 63-20 77-48 11 6 22 9 34 9 42 0 76-34 76-76 0-20-8-39-21-52 40-13 70-51 70-95l0-3c0-7-6-14-14-14l-442 0c-8 0-14 7-14 14l0 3c0 44 30 82 70 95-13 13-21 32-21 52 0 42 34 76 76 76 11 0 22-3 32-8 15 28 44 47 77 47z m-127-190l-8 0c-35 0-65-27-70-61l61 0 0 5c0 21 6 40 17 56z m114 16l-32 0c-15 0-28-5-40-12-1-1-2-2-3-3-17-13-28-34-28-57l0-5 103 0z m59 0l-31 0 0-77 103 0 0 5c0 40-32 72-72 72z m91-16l-8 0c10-16 17-35 17-56l0-5 61 0c-5 34-35 61-70 61z m-26 123c-9 0-18-3-26-8 1-4 1-8 1-12 0-24-9-45-24-61 14-2 27-7 39-15l10 0c27 0 48 22 48 48 0 26-21 48-48 48z m-220 0c-27 0-48-22-48-48 0-26 21-48 48-48 0 0 0 0 0 0l10 0c11 8 23 13 37 15-15 16-25 37-25 61 0 5 1 9 1 14-7 4-15 6-23 6z m109 39c-33 0-59-26-59-59 0-33 26-59 59-59 32 0 59 26 59 59 0 33-27 59-59 59z m132 219c8 0 14-7 14-14l0-89c0-8-6-14-14-14-8 0-14 6-14 14l0 55-84-86c-5-5-13-5-18-1l-79 58-57-62c-3-3-7-5-10-5-4 0-7 1-10 4-5 5-6 14 0 19l65 72c4 5 12 6 18 2l79-59 77 78-50 0c-8 0-14 6-14 14 0 7 6 14 14 14z"/>
<glyph glyph-name="ic-v2-administrator" unicode="&#67;" d="M256 448c18 0 36-7 50-19 13-12 22-29 23-47 29-13 53-33 71-58 17-23 27-50 31-78l0-7 23 0c10 0 19-4 26-11 6-6 10-13 11-22l0-3 0-86c0-10-4-19-11-26-6-6-14-10-23-10l-3 0-396 0c-10 0-19 3-26 10-6 6-10 14-11 22l0 4 0 86c0 10 4 19 11 25 6 6 14 10 23 11l3 0 23 0c2 31 13 60 31 85 18 25 42 45 71 58 1 18 10 35 23 47 14 12 32 19 50 19z m196-237l-390 0c-2 0-3-1-5-2-1-1-1-2-2-3l0-2 0-85c0-2 1-4 2-5 1-1 3-2 4-2l1-1 390 0c2 0 4 1 5 3 1 1 2 2 2 3l0 2 0 85c0 2 0 4-2 5-1 1-3 2-5 2z m-130 139c-4-14-13-26-25-34-12-8-26-13-41-13-15 0-29 5-41 13-12 8-21 20-25 34-21-11-39-27-52-46-12-18-20-40-23-63l63 0 0 28c0 9 4 18 11 24 6 7 15 10 25 10l84 0c10 0 19-3 25-10 7-6 11-15 11-24l0-28 63 0c-3 23-11 45-23 63-13 19-31 35-52 46z m-25-69l-82 0c-2 0-3-1-5-2-1-1-1-2-2-3l0-2 0-27 96 0 0 27c0 2-1 4-2 5-2 1-3 2-5 2z m-41 136c-11 0-21-4-29-12-7-7-11-17-11-28 0-8 2-15 6-22 5-6 11-11 19-14 7-3 15-4 23-3 8 2 15 6 21 11 5 6 9 13 11 21 1 7 0 15-3 22-3 8-8 14-15 18-6 5-14 7-22 7z"/>
<glyph glyph-name="ic-v2-approval-flow" unicode="&#74;" d="M438 480c7 0 13-4 14-11l0-2 0-93 14 0c6 0 12-4 13-11l0-2 0-238c0-3-1-6-4-9l-82-79c-2-2-5-3-8-3l-2 0-165 0c-7 0-13 4-14 11l0 2 0 39-41 0c-7 0-13 5-14 11l0 2 0 370c0 7 5 12 12 13l2 0z m14-132l-220 0 0-290 137 0 0 66c0 6 5 12 12 13l2 0 69 0z m-389 119c22 0 40-17 40-38 0-17-13-32-29-36l0-89c16-5 29-19 29-37 0-17-13-32-29-36l0-82c16-4 29-19 29-37 0-21-18-38-40-38-22 0-40 17-40 38 0 18 12 33 29 37l0 82c-17 4-29 19-29 36 0 18 12 32 29 37l0 89c-17 4-29 19-29 36 0 21 18 38 40 38z m369-357l-35 0 0-34z m-369 20c-10 0-19-8-19-18 0-9 9-17 19-17 10 0 18 8 18 17 0 10-8 18-18 18z m169 324l-55 0 0-344 27 0 0 251c0 7 5 12 12 13l2 0 206 0 0 80-55 0 0-39c0-7-5-12-11-13l-2 0-110 0c-7 0-13 4-14 11l0 2z m96-306c8 0 14-6 14-13 0-6-5-12-12-13l-2 0-55 0c-8 0-14 6-14 13 0 7 5 12 12 13l2 0z m0 53c8 0 14-6 14-13 0-7-5-12-12-13l-2 0-55 0c-8 0-14 6-14 13 0 6 5 12 12 13l2 0z m83 53c7 0 13-6 13-14 0-6-5-12-11-13l-2 0-138 0c-8 0-14 6-14 13 0 7 5 12 12 13l2 1z m-348 31c-10 0-19-8-19-18 0-9 9-17 19-17 10 0 18 8 18 17 0 10-8 18-18 18z m238 21c7 0 13-6 13-13 0-7-5-12-11-13l-2 0-28 0c-8 0-14 6-14 13 0 7 5 12 12 13l2 0z m-223 140l-22-20-8 8c-2 2-7 2-9 0-3-3-3-7 0-9l13-12c1-1 3-2 4-2 2 0 4 1 5 2l26 24c2 3 2 7 0 9-3 2-7 2-9 0z m261 8l-77 0c-6 0-11-4-11-10l0-16c0-6 5-11 11-11l77 0c6 0 11 5 11 11l0 16c0 6-5 10-11 10z"/>
<glyph glyph-name="ic-v2-assignment" unicode="&#77;" d="M270 329c5 0 10-1 14-4 4-3 7-8 8-12 1-5 1-10-1-15-2-4-6-8-10-10l-91-48 0-87c0-4-2-7-4-10-3-3-7-4-11-4-4 0-7 1-10 4-3 3-4 6-4 10l0 96c0 2 0 5 2 7 1 3 3 4 5 6l73 38-183 0c-2 0-4-1-5-2-2-2-2-3-2-5l0-96c0-2 0-3 2-5 1-1 3-2 5-2l15 0c4 0 7-2 10-4 3-3 4-7 4-11l0-51 187 0c3 7 7 12 13 16 6 4 13 6 20 6l88 0c10 0 19-4 26-11 7-7 11-16 11-26l0-58 29 0 0 44c-4 0-7 1-10 4-3 3-4 6-4 10 0 4 1 8 4 11 3 2 6 4 10 4l15 0c4 0 8-2 10-4 3-3 5-7 5-11l0-73c0-4-2-8-5-10-2-3-6-5-10-5l-440 0c-4 0-8 2-10 5-3 2-5 6-5 10l0 73c0 4 2 8 5 11 2 2 6 4 10 4l22 0 0 37c-10 0-19 4-26 10-7 7-11 17-11 26l0 96c0 9 4 19 11 26 7 6 16 10 26 10z m1-234l-220 0 0-44 220 0z m124 22l-88 0c-2 0-3-1-5-2-1-2-2-4-2-6l0-58 103 0 0 58c0 2-1 4-2 6-2 1-4 2-6 2z m-59 182c15 2 31 1 45-5 14-6 26-16 34-28 9-13 13-28 13-43 0-20-8-40-22-54-15-15-34-23-55-23-15 0-30 5-43 13-12 8-22 20-28 35-6 14-7 29-4 44 3 15 10 29 21 39 10 11 24 19 39 22z m33-32c-8 4-18 5-27 3-9-2-18-7-25-13-6-7-11-15-13-25-1-9 0-19 3-27 4-9 10-16 18-22 8-5 17-8 26-8 13 0 25 5 34 14 9 9 14 21 14 34 0 9-3 19-8 26-5 8-13 14-22 18z m-260 215c15 3 30 1 44-5 15-5 27-15 35-28 8-13 13-27 13-43 0-20-8-40-23-54-14-15-34-23-54-23-15 0-30 5-43 13-12 9-22 21-28 35-6 14-7 29-5 44 3 15 11 29 22 40 10 11 24 18 39 21z m286 9c4 0 8-2 11-5 2-2 4-6 4-10l0-88c0-4-2-8-4-10-3-3-7-5-11-5l-113 0-40-27c-2-1-5-2-8-2-3 0-6 1-8 3-3 1-5 4-6 7-1 2-1 5 0 8l14 58 0 56c0 4 2 8 4 10 3 3 7 5 11 5z m-253-41c-8 4-18 5-27 3-10-2-18-6-25-13-6-7-11-15-13-24-2-10-1-19 3-28 4-9 10-16 18-21 7-6 17-8 26-8 13 0 25 5 34 14 9 9 14 21 14 33 0 10-3 19-8 27-6 8-13 14-22 17z m239 11l-118 0 0-42c0-1-6-27-6-27 5 3 15 11 21 11l103 0z"/>
<glyph glyph-name="ic-v2-attachment" unicode="&#78;" d="M439 292l-194-182c-41-38-108-38-149 0-41 39-41 101 0 139l195 182c24 23 64 23 88 0 25-23 25-60 0-83l-194-182c-8-7-21-7-29 0-8 8-8 20 0 27l179 168c9 8 9 21 0 29-8 8-22 8-30 0l-180-168c-25-23-25-61 0-85 25-23 66-23 91 0l194 182c42 39 42 102 0 141-41 39-109 39-150 0l-194-182c-58-54-58-142 0-197 58-54 152-54 210 0l194 182c8 8 8 21 0 29-9 8-22 8-31 0z"/>
<glyph glyph-name="ic-v2-authority" unicode="&#83;" d="M395 475c2 0 5-1 7-2l2-2 79-79c2-2 3-4 3-7l1-2 0-344c0-6-5-12-12-13l-2 0-422 0c-7 0-12 5-13 11l0 2 0 27c0 18 12 33 28 38l3 0 17 28c5 15 18 24 33 26l3 0 18 0c-21 117-23 124-23 130l0 2c0 28 21 51 49 53l3 0 0 119c0 7 5 12 11 13l2 0z m-145-396l-167 0c-6 0-11-5-12-10l0-2 0-12 191 0 0 12c0 6-4 11-10 12l-2 0z m127 360l-175 0 0-106c15-9 25-25 25-43l0-2 0-1c0-5-3-16-21-115l-1-6 17 0c14 0 27-9 33-22l1-2 16-27c15-3 28-16 29-33l0-3 0-12 150 0 0 298-62 0c-6 0-11 4-12 10l0 2z m-160-308l-91 0c-5 0-10-3-12-8-1-2-1-2-8-14l-2-3 134 0c-8 15-9 15-9 17-2 5-7 8-12 8z m-46 180c-13 0-24-11-24-25 0-3-2 8 22-122l4 0c22 120 23 120 23 122l0 0c0 14-11 25-25 25z m250-100c7 0 13-6 13-13 0-7-5-12-11-13l-2 0-153 0c-8 0-13 6-13 13 0 7 4 12 11 13l2 0z m0 53c7 0 13-6 13-13 0-7-5-12-11-13l-2 0-153 0c-8 0-13 5-13 13 0 6 4 12 11 13l2 0z m0 52c7 0 13-5 13-13 0-6-5-12-11-13l-2 0-79 0c-7 0-13 6-13 13 0 7 5 12 11 13l2 0z m-102 22c2-3 3-7 0-11l-1-1-33-33c-2-1-4-2-6-2-2 0-3 0-5 1l-1 1-16 17c-4 3-4 8 0 11 2 3 7 4 10 1l1-1 11-10 28 27c3 3 8 3 12 0z m89 92l0-34 34 0z"/>
<glyph glyph-name="ic-v2-budget-category" unicode="&#85;" d="M201 491c18 0 33-12 39-28l43 0c5 0 9-2 12-6 2-3 3-8 2-12l-23-70c14-7 23-21 23-37 0-11-4-21-10-28 18-11 34-25 48-41 1 0 2 0 4 0l110 0c23 0 42-19 42-41 0-11-4-21-11-28 7-7 11-17 11-27 0-11-4-21-11-28 7-7 11-17 11-27 0-11-4-21-11-28 7-7 11-17 11-27 0-23-19-42-42-42l-110 0c-13 0-24 6-32 15-27-10-61-15-106-15-56 0-95 7-124 23-37 20-56 54-56 101 0 69 39 132 94 165-6 7-10 17-10 28 0 16 9 30 23 37l-23 70c-1 4 0 9 2 12 3 4 7 6 12 6l43 0c6 16 21 28 39 28z m248-415l-110 0c-8 0-14-6-14-13 0-8 6-14 14-14l110 0c8 0 14 6 14 14 0 7-6 13-14 13z m-196 220l-104 0c-59-24-100-86-100-151 0-37 13-62 41-77 25-13 60-19 111-19 42 0 73 4 96 13 0 0 0 0 0 1 0 10 4 20 11 27-7 7-11 17-11 28 0 10 4 20 11 27-7 7-11 17-11 28 0 10 4 20 11 27-7 7-11 17-11 28 0 11 5 21 12 28-16 18-35 32-56 40z m-46-40c7 0 13-6 13-13l0-5c20-3 35-21 35-41 0-9-3-18-8-25 10-7 17-19 17-33 0-23-19-41-42-41l-2 0 0-5c0-7-6-13-13-13-8 0-14 6-14 13l0 5-22 0c-7 0-13 6-13 13l0 114c0 7 6 13 13 13l22 0 0 5c0 7 6 13 14 13z m242-125l-110 0c-8 0-14-6-14-13 0-8 6-14 14-14l110 0c8 0 14 6 14 14 0 7-6 13-14 13z m-227 24l-37 0 0-31 37 0c9 0 15 7 15 15 0 9-6 16-15 16z m227 31l-110 0c-8 0-14-6-14-13 0-8 6-14 14-14l110 0c8 0 14 6 14 14 0 7-6 13-14 13z m-236 26l-28 0 0-31 28 0c9 0 16 7 16 16 0 8-7 15-16 15z m236 29l-110 0c-8 0-14-6-14-13 0-8 6-14 14-14l110 0c8 0 14 6 14 14 0 7-6 13-14 13z m-193 110l-110 0c-8 0-14-6-14-13 0-8 6-14 14-14l110 0c8 0 14 6 14 14 0 7-6 13-14 13z m-55 112c-8 0-14-6-14-14 0-7-6-13-14-13l-36 0 19-57 90 0 19 57-23 0 0-14c0-8-6-14-13-14-8 0-14 6-14 14l0 27c0 8-6 14-14 14z"/>
<glyph glyph-name="ic-v2-competency-group" unicode="&#87;" d="M168 143c10 0 19-9 19-20l0-26c0 11 9 19 19 19l97 0c11 0 20-8 20-19l0 26c0 11 8 20 19 20l97 0c11 0 19-9 19-20l0-74-135 0 0-27-136 0 0 27-136 0 0 74c0 11 9 20 20 20z m129-52l-85 0 0-44 85 0z m-135 26l-86 0 0-43 86 0z m271 0l-85 0 0-43 85 0z m-177 124c30 0 54-24 54-55 0-30-24-54-54-54-30 0-55 24-55 54 0 31 25 55 55 55z m0-27c-15 0-28-12-28-28 0-15 13-27 28-27 15 0 27 12 27 27 0 16-12 28-27 28z m165 276c7 0 12-5 13-12l0-2 0-164c0-7-5-13-11-14l-2 0-41 0 0-31c4 1 9 2 13 2 30 0 55-25 55-55 0-30-25-55-55-55-30 0-54 25-54 55 0 13 4 24 12 34l2 3-47 47-97 0-49-49c8-9 13-22 13-35 0-30-24-55-54-55-30 0-55 25-55 55 0 30 25 55 55 55 4 0 8-1 12-2l4-1 0 32-41 0c-7 0-13 5-13 12l-1 2 0 164c0 7 6 13 12 14l2 0z m-28-249c-15 0-27-12-27-27 0-15 12-28 27-28 15 0 28 13 28 28 0 15-13 27-28 27z m-274 0c-15 0-28-12-28-27 0-15 13-28 28-28 15 0 27 13 27 28 0 15-12 27-27 27z m288 222l-299 0 0-137 40 0c7 0 13-6 14-12l0-2 0-22 31 32c2 2 5 3 8 3l2 1 109 0c3 0 5-1 8-3l1-1 32-32 0 22c0 7 5 13 11 13l2 1 41 0z m-151-11c3 0 6-1 9-3 3-2 5-4 6-7l9-19 20-3c3 0 6-2 8-4 3-2 4-5 5-8 1-3 1-6 1-10-1-3-3-6-5-8l-14-15 3-20c1-3 0-7-1-10-1-3-3-5-6-7-2-2-5-3-8-4-3 0-6 1-9 2l-18 10-18-10c-3-1-6-2-9-2-3 1-6 2-8 4-3 2-5 4-6 7-1 3-2 7-1 10l3 20-14 15c-2 2-4 5-5 8 0 4 0 7 1 10 1 3 2 6 5 8 2 2 5 4 8 4l20 3 9 19c1 3 3 5 6 7 3 2 6 3 9 3z m0-31l-6-14c-1-2-2-3-4-4-1-1-3-2-5-2l-14-2 10-11c1-1 2-3 3-5 1-2 1-4 0-6l-2-14 13 7c1 0 3 1 5 1 2 0 4-1 5-1l13-7-2 14c-1 2-1 4 0 6 1 2 2 4 3 5l10 11-14 2c-2 0-4 1-5 2-2 1-3 2-4 4z"/>
<glyph glyph-name="ic-v2-competency-master" unicode="&#88;" d="M388 491c8 0 15-3 21-9 5-5 8-11 8-18l0-3 0-29 30 0c7 0 15-3 20-9 5-4 8-11 9-17l0-3 0-78c4-2 8-6 11-10 2-4 3-8 3-12l1-3 0-249c0-8-3-16-9-21-5-5-11-8-18-9l-3 0-410 0c-8 0-16 3-21 9-5 5-8 11-9 18l0 3 0 249c0 8 3 15 9 21 5 5 11 8 18 8l3 0 29 0 0 44c0 3 1 6 3 9l1 2 103 102c2 3 5 4 8 4l2 1z m-242-191l-95 0 0-249 410 0 0 249-95 0 0-15c0-7-3-14-8-19-4-6-11-9-18-10-6 0-162 0-168 0-7 1-14 4-18 10-5 4-7 10-8 16l0 3z m110-74l2 0c4 0 7-1 10-3 3-2 6-5 8-9l11-23 26-4c4 0 8-2 11-5 3-2 5-6 7-10 1-4 1-8 0-12-1-4-3-7-6-10l-18-19 4-25c1-4 0-8-1-12-2-4-4-7-8-10-3-2-7-3-11-4-3 0-7 0-10 2l-2 1-23 12-23-12c-2-2-5-2-7-3l-2 0c-1 0-2 0-3 0-4 1-8 2-11 4-4 3-6 6-8 10-1 3-1 6-1 9l0 3 4 25-18 19c-3 3-5 6-6 10-1 4-1 8 0 12 2 4 4 8 7 10 2 2 5 4 8 5l3 0 26 4 11 23c2 4 5 7 8 9 4 2 8 3 12 3z m0-38l-8-17c-1-2-3-4-5-5-2-2-4-3-6-3l-19-3 13-13c2-2 3-4 4-6 1-2 1-5 1-7l-4-19 17 9c2 1 5 2 7 2l2 0c2-1 3-1 5-2l17-9-4 19c0 2 0 5 1 7 0 2 1 3 2 4l2 2 13 13-19 3c-2 0-4 1-6 3-2 1-3 2-4 4l-1 1z m132 273l-176 0 0-73c0-8-3-15-9-21-4-5-11-8-17-8l-3 0-74 0 0-30 52 0c4 0 7-1 10-4 2-2 4-5 4-8l0-2 0-30 162 0 0 30c0 4 1 7 4 10 2 2 5 4 8 4l2 0 37 0z m59-58l-30 0 0-74 30 0z m-264 38l-53-53 53 0z"/>
<glyph glyph-name="ic-v2-competency-rating" unicode="&#89;" d="M322 463c4 0 8-1 10-4l110-109c3-3 5-6 5-10l0-173 25-4c4-1 8-3 11-5 3-3 5-6 6-10 2-4 2-9 1-13-1-4-3-7-6-10l-20-21 5-29c0-4 0-8-2-12-1-4-4-7-7-10-4-2-8-4-12-4-4 0-8 1-12 2l-25 14-24-14c-4-1-8-2-12-2-5 0-9 2-12 4-3 3-6 6-8 10-1 4-2 8-1 12l5 29c-4 5-24 22-25 28-2-6-21-23-26-28l5-29c1-4 1-8-1-12-2-4-4-7-8-10-3-2-7-4-11-4-5 0-9 1-12 2l-25 14-25-14c-3-1-7-2-12-2-4 0-8 2-11 4-4 3-6 6-8 10-2 4-2 8-1 12l5 29c-5 5-24 22-26 28-1-6-21-23-25-28l5-29c1-4 0-8-1-12-2-4-5-7-8-10-3-2-7-4-12-4-4 0-8 1-12 2l-24 14-25-14c-4-1-8-2-12-2-4 0-8 2-12 4-3 3-6 6-7 10-2 4-2 8-2 12l5 29-20 21c-3 3-5 6-6 10-1 4-1 9 1 13 1 4 3 7 6 10 3 2 7 4 11 5l25 4 0 267c0 8 3 15 9 21 5 5 13 8 21 8z m-66-295l-9-20c-2-2-3-4-5-6-2-1-4-2-7-2l-22-4 17-17c1-1 2-3 3-5 1-3 1-5 1-7l-4-23 19 10c2 1 5 2 7 2 2 0 5-1 7-2l19-10-4 23c0 2 0 4 1 7 1 2 2 4 3 5l17 17-22 4c-3 0-5 1-7 2-2 2-3 4-5 6z m155 0l-9-20c-1-2-3-4-5-6-2-1-4-2-6-2l-23-4 17-17c2-1 3-3 4-5 0-3 0-5 0-7l-4-23 19 10c2 1 5 2 7 2 3 0 5-1 7-2l19-10-3 23c-1 2-1 4 0 7 1 2 2 4 4 5l16 17-22 4c-2 0-5 1-7 2-2 2-3 4-4 6z m-310 0l-10-20c-1-2-2-4-4-6-2-1-5-2-7-2l-22-4 16-17c2-1 3-3 4-5 1-3 1-5 0-7l-3-23 19 10c2 1 4 2 7 2 2 0 5-1 7-2l19-10-4 23c0 2 0 4 0 7 1 2 2 4 4 5l17 17-23 4c-2 0-4 1-6 2-2 2-4 4-5 6z m206 266l-212 0 0-229c2 1 4 1 6 1 4 0 8-1 12-3 3-3 6-6 8-10l12-26 28-4c4-1 7-2 10-5 4-2 6-5 7-9 2 4 4 7 7 9 3 3 7 4 11 5l27 4 13 26c2 4 4 7 8 10 4 2 8 3 12 3 4 0 8-1 12-3 4-3 6-6 8-10l13-26 27-4c4-1 8-2 11-5 3-2 5-5 7-9 1 4 3 7 7 9 3 3 6 4 10 5l28 4 12 26c2 5 6 9 11 11 5 2 10 3 15 1l0 120-80 0c-8 0-16 3-21 9-6 5-9 13-9 20z m-44-145c4 0 8-2 11-4 2-3 4-7 4-11 0-4-2-7-4-10-3-3-7-4-11-4l-124 0c-4 0-8 1-11 4-2 3-4 6-4 10 0 4 2 8 4 11 3 2 7 4 11 4z m0 58c4 0 8-2 11-4 2-3 4-7 4-11 0-3-2-7-4-10-3-3-7-4-11-4l-124 0c-4 0-8 1-11 4-2 3-4 7-4 10 0 4 2 8 4 11 3 2 7 4 11 4z m74 67l0-60 60 0z m-74-9c4 0 8-1 11-4 2-3 4-7 4-10 0-4-2-8-4-11-3-2-7-4-11-4l-124 0c-4 0-8 2-11 4-2 3-4 7-4 11 0 3 2 7 4 10 3 3 7 4 11 4z"/>
<glyph glyph-name="ic-v2-data-visualization" unicode="&#54;" d="M126 451c38 26 84 40 130 40 62 0 122-25 166-69 44-44 69-104 69-166 0-46-14-92-40-130-26-39-62-69-105-87-43-18-90-22-136-13-45 9-87 31-120 64-33 33-55 75-64 120-9 46-5 93 13 136 18 43 48 79 87 105z m285-329c33 37 50 85 50 134 0 52-19 102-55 140-35 38-84 61-135 65l0-44c29-3 57-13 81-31 23-17 42-41 53-68 11-27 15-57 11-86-5-29-17-57-36-79z m-82 244c-21 14-47 22-73 22-35 0-69-14-93-39-25-24-39-58-39-93 0-26 8-52 22-73 15-22 35-39 59-49 25-10 51-13 77-7 25 5 49 17 67 36 19 18 31 42 36 67 6 26 3 52-7 77-10 24-27 44-49 59z m30-234c-25-21-56-34-88-37l0-44c44 3 86 21 119 50z m-253 264c-36-38-55-88-55-140 0-52 19-102 55-140 35-38 84-61 135-65l0 44c-40 4-77 23-104 52-27 30-42 69-42 109 0 40 15 79 42 109 27 30 64 48 104 52l0 44c-51-4-100-27-135-65z m170-183l76 74c0 0 6 13-3 22-8 9-20 4-20 4l-69-65-25 27c-8 9-22 9-31 1l-44-44c0 0-6-11 4-21 9-10 20-4 20-4l36 38 25-30c8-9 22-10 31-2z"/>
<glyph glyph-name="ic-v2-delete" unicode="&#55;" d="M299 491c35 0 64-29 64-64l0-22 85 0c11 0 20-8 21-19l0-2c0-12-9-21-21-21l-21 0 0-278c0-35-29-64-64-64l-214 0c-35 0-64 29-64 64l0 278-21 0c-11 0-20 8-21 19l0 2c0 12 9 21 21 21l85 0 0 22c0 35 29 64 64 64z m85-128l-256 0 0-278c0-11 10-21 21-21l214 0c11 0 21 10 21 21z m-171-64c12 0 22-10 22-22l0-128c0-11-10-21-22-21-11 0-21 10-21 21l0 128c0 12 10 22 21 22z m86 0c11 0 21-10 21-22l0-128c0-11-10-21-21-21-12 0-22 10-22 21l0 128c0 12 10 22 22 22z m0 149l-86 0c-11 0-21-10-21-21l0-22 128 0 0 22c0 11-10 21-21 21z"/>
<glyph glyph-name="ic-v2-edit" unicode="&#57;" d="M234 446c12 0 22-10 22-22 0-13-10-22-22-22l-148 0c-11 0-20-9-20-21l0-295c0-11 9-20 20-20l295 0c12 0 21 9 21 20l0 148c0 12 9 22 22 22 12 0 22-10 22-22l0-148c0-36-29-65-65-65l-295 0c-36 0-65 29-65 65l0 295c0 36 29 65 65 65z m237 25c26-26 26-68 0-95l-201-200c-2-3-6-5-10-6l-84-21c-17-4-31 10-27 27l21 84c1 4 3 8 6 10l200 201c27 26 69 26 95 0z m-63-31l-197-197-10-42 42 10 197 197c9 9 9 23 0 32-9 9-23 9-32 0z"/>
<glyph glyph-name="ic-v2-instructor" unicode="&#33;" d="M410 491c4 0 8-2 10-5 3-2 5-6 5-10 0-4-2-8-5-10-2-3-6-5-10-5l0-14c0-4-2-8-4-11-3-2-7-4-11-4-4 0-7 2-10 4-3 3-4 7-4 11l0 14-316 0 0-278 240 0-88 64c-28 19-3 65 28 51l87-35 122 0c10 0 19-4 26-10 7-7 11-17 11-26l0-81c0-10-4-19-11-26-7-7-16-11-26-11l-7 0 0-73c0-4-2-8-5-10-2-3-6-5-10-5l-103 0c-4 0-7 2-10 5-3 2-4 6-4 10l0 117-74 0 0-17c10-3 18-10 24-19 5-9 7-20 5-30-2-10-7-19-15-26-8-7-18-10-28-10-11 0-21 3-29 10-8 7-13 16-15 26-1 10 0 21 6 30 5 9 13 16 23 19l0 17-161 0c-4 0-8 2-11 5-2 2-4 6-4 10l0 293c-4 0-8 2-10 5-3 2-5 6-5 10 0 4 2 8 5 10 2 3 6 5 10 5z m-176-220l104-77c2-1 3-3 4-5 1-2 2-4 2-6l0-132 73 0 0 58-39 0c-6 0-12 2-17 6-5 4-8 10-9 16-2 6-1 12 2 17 3 6 7 10 13 13l59 28c3 1 7 1 11 0 4-1 7-4 8-7 2-4 2-8 1-12-2-3-4-6-8-8l-50-23 66 0c2 0 4 0 5 2 2 1 2 3 2 5l0 81c0 2 0 3-2 5-1 1-3 2-5 2l-125 0c-2 0-4 0-5 1z m-8-162l-2 0c-3-1-6-2-8-4-2-2-3-5-4-7 0-3 0-6 1-9 1-3 3-5 6-7 2-1 5-2 8-2 4 0 7 2 10 4 3 3 4 7 4 11 0 3-1 5-2 8-2 2-4 4-7 5-2 1-5 2-8 1z m140 307c15 3 30 1 44-5 14-5 26-15 35-28 8-13 13-27 13-43 0-20-8-40-23-54-14-15-34-23-54-23-16 0-30 5-43 13-13 9-23 21-28 35-6 14-8 29-5 44 3 15 10 29 21 40 11 11 25 18 40 21z m33-32c-9 4-18 5-28 3-9-2-17-6-24-13-7-7-11-15-13-24-2-10-1-19 3-28 3-9 9-16 17-21 8-6 17-8 27-8 12 0 24 5 33 14 9 9 14 21 14 33 0 10-2 19-8 27-5 8-12 14-21 17z m-216-33c4 0 7-1 10-4 3-3 4-6 4-10 0-4-1-8-4-11-3-2-6-4-10-4l-74 0c-4 0-7 2-10 4-3 3-4 7-4 11 0 4 1 7 4 10 3 3 6 4 10 4z m73 59c4 0 8-2 10-4 3-3 5-7 5-11 0-4-2-7-5-10-2-3-6-4-10-4l-147 0c-4 0-7 1-10 4-3 3-4 6-4 10 0 4 1 8 4 11 3 2 6 4 10 4z"/>
<glyph glyph-name="ic-v2-information" unicode="&#34;" d="M256 491c130 0 235-105 235-235 0-130-105-235-235-235-130 0-235 105-235 235 0 130 105 235 235 235z m0-43c-106 0-192-86-192-192 0-106 86-192 192-192 106 0 192 86 192 192 0 106-86 192-192 192z m0-169c12 0 21-9 23-21l0-2 0-76c0-13-10-23-23-23-12 0-21 9-23 20l0 3 0 76c0 13 10 23 23 23z m16 69c9-9 9-23 0-32-9-9-23-9-32 0-9 9-9 23 0 32 9 9 23 9 32 0z"/>
<glyph glyph-name="ic-v2-homepage-setting" unicode="&#35;" d="M350 486c7 0 13-4 15-11l0-2 5-26c6-3 12-6 17-9l5-4 27 10c6 2 14 0 18-5l1-2 24-40c3-6 2-13-2-18l-2-2-22-17c1-6 1-12 1-18l-1-7 22-17c5-4 7-11 5-17l-1-2-24-40c-4-6-11-9-17-8l-2 1-27 9c-2-1-5-3-8-5l0-173c0-26-23-47-51-47l-239 0c-28 0-51 21-51 47l0 174c0 5 2 9 6 12l148 106-3 2c-6 5-8 14-4 20l24 40c4 7 12 9 19 7l27-10c7 5 14 9 22 13l5 26c1 8 7 13 15 13z m-136-139l-137-98 0-166c0-9 7-16 17-16l51 0 0 142c0 8 7 15 15 16l2 0 103 0c9 0 17-7 17-16l0-142 51 0c10 0 17 7 17 16l0 166z m34-153l-69 0 0-127 69 0z m88 261l-20 0-4-22c-1-6-5-10-11-12-10-4-20-9-28-16-4-3-9-4-14-3l-2 0-22 8-11-17 19-15c2-2 0-6-3-10l39-28c0 3-1 5-1 8 0 25 22 46 48 46 26 0 48-21 48-46 0-24-18-43-42-46l31-22c6 3 11 6 16 10 4 4 9 5 14 4l2-1 22-8 11 18-19 14c-4 4-6 10-5 15 2 10 2 21 0 31-1 5 0 10 4 14l1 1 19 15-11 17-22-8c-6-2-12-1-16 3-8 7-18 12-28 16-5 1-9 5-10 10l-1 2z m-10-92c-9 0-16-7-16-15 0-9 7-16 16-16 9 0 16 7 16 16 0 8-7 15-16 15z"/>
<glyph glyph-name="ic-v2-highlight" unicode="&#36;" d="M422 481c8 0 14-6 14-13l0-94 13 0c23 0 42-18 42-40 0-22-19-39-42-39l-13 0 0-93c0-7-6-13-14-13-8 0-14 6-14 13l0 18c-26 12-54 19-82 21l0-28c16-5 27-20 27-37 0-18-13-34-30-38 2-5 3-10 3-15 0-18-13-34-31-38 2-5 3-10 3-15 0-22-18-39-41-39l-71 0c-29 0-56 10-76 30-15 14-37 23-59 23l-16 0c-8 0-14 5-14 13l0 105c0 8 6 14 14 14l16 0c22 0 44 8 59 22 10 10 22 18 36 23-3 2-5 4-8 6-19 16-31 38-32 62-2 26 8 50 26 69 18 18 43 29 70 29l103 0c36 0 71 7 103 21l0 20c0 7 6 13 14 13z m-220-239l-16 0c-22 0-42-8-57-23-20-19-49-30-78-30l-2 0 0-79 2 0c29 0 58-11 78-30 15-15 35-23 57-23l71 0c8 0 14 6 14 13 0 8-6 14-14 14l-11 0c-8 0-14 5-14 13 0 7 6 13 14 13l38 0c8 0 14 6 14 13 0 7-6 13-14 13l-27 0c-8 0-14 6-14 14 0 7 6 13 14 13l55 0c8 0 14 6 14 13 0 7-6 13-14 13l-110 0c-8 0-14 6-14 13 0 8 6 14 14 14l39 0c-6 15-21 26-39 26z m96 0l-41 0c6-8 10-17 12-26l29 0z m110 178c-9-4-18-7-27-10l0-152c9-2 18-5 27-9z m-55-16c-16-2-32-4-48-4l-103 0c-19 0-37-7-50-20-13-14-20-31-19-49 2-35 35-63 74-63l105 0c1 0 1 0 2 0 13 0 26-2 39-4z m-96-83c8 0 14-6 14-13 0-7-6-13-14-13l-28 0c-7 0-13 6-13 13 0 7 6 13 13 13z m192 27l-13 0 0-27 13 0c8 0 14 6 14 13 0 8-6 14-14 14z m-192 26c8 0 14-6 14-13 0-8-6-13-14-13l-28 0c-7 0-13 5-13 13 0 7 6 13 13 13z"/>
<glyph glyph-name="ic-v2-group-mangement" unicode="&#38;" d="M256 491c-130 0-235-105-235-235 0-130 105-235 235-235 130 0 235 105 235 235 0 130-105 235-235 235z m-98-413c-13 7-19 12-30 22l0 106c0 30 24 54 54 54l0 0c11 0 23-3 32-10-15-12-25-31-25-51 0-18 7-33 18-45-25-16-48-45-49-76z m-6 249c0 16 13 30 30 30 16 0 30-14 30-30 0-17-14-30-30-30l0 0c-17 0-30 13-30 30z m163-267c-18-4-40-9-59-9-19 0-41 5-59 9l0 18c0 30 29 54 59 54l0 0c31 0 59-24 59-54z m-89 139c0 16 13 30 30 30 17 0 30-14 30-30 0-17-13-30-30-30l0 0c-17 0-30 13-30 30z m157-99c-12-10-26-23-39-30-1 31-14 68-39 84 11 12 18 27 18 45 0 20-10 39-25 51 9 7 21 10 32 10l0 0c30 0 54-24 54-54z m-83 227c0 16 14 30 30 30 17 0 30-14 30-30 0-17-13-30-30-30l0 0c-16 0-30 13-30 30z m121-188l0 67c0 32-16 60-41 76 10 12 17 28 17 45 0 37-30 66-67 66-36 0-66-29-66-66 0-17 6-33 17-45-8-4-14-10-20-17-2 0-3 0-5 0-2 0-3 0-5 0-6 7-12 13-20 17 11 12 17 28 17 45 0 37-30 66-66 66-37 0-67-29-67-66 0-17 7-33 17-45-25-16-41-44-41-76l-1-67c-22 32-39 77-39 117 0 109 96 205 205 205 109 0 205-96 205-205 0-40-19-85-40-117z"/>
<glyph glyph-name="ic-v2-gamification-challenge" unicode="&#39;" d="M256 480c41 0 80-10 115-29l7-3 23 21c4 4 10 5 15 3 4-1 7-5 8-9l1-2 3-40 42-4c6 0 10-3 12-8 2-4 1-9-2-12l-1-2-23-22c23-35 35-75 35-117 0-60-25-116-69-159-44-42-103-65-166-65-63 0-122 23-166 65-44 43-69 99-69 159 0 60 25 116 69 159 44 42 103 65 166 65z m0-26c-55 0-107-20-146-58-40-37-61-87-61-140 0-53 21-103 61-140 39-38 91-58 146-58 55 0 107 20 146 58 40 37 61 87 61 140 0 32-8 63-23 91l-4 7-15-15c-1 0-1-1-1-1-1 0-1 0-1 0 0 0 0 0-1-1 0 0 0 0 0 0 0 0-1 0-1 0 0 0 0 0 0-1-1 0-1 0-1 0 0 0 0 0-1 0 0 0 0 0 0 0-1 0-1 0-1 0 0 0-1-1-1-1 0 0 0 0 0 0-1 0-1 0-1 0-1 0-1 0-1 0l0 0 0 0-1 0-22 2c16-23 25-51 25-81 0-83-71-150-157-150-86 0-157 67-157 150 0 83 71 150 157 150 29 0 56-8 79-21l6-3-2 21c0 1 0 1 0 2 0 2 1 5 2 7l2 1 15 15c-31 17-66 26-102 26z m0-74c-71 0-129-56-129-124 0-68 58-124 129-124 71 0 129 56 129 124 0 27-9 53-25 73l-3 5-40-38c8-11 13-25 13-40 0-39-33-71-74-71-41 0-74 32-74 71 0 39 33 71 74 71 14 0 27-4 38-10l4-2 39 37c-22 17-50 28-81 28z m0-79c-26 0-47-20-47-45 0-25 21-45 47-45 25 0 45 19 47 42l0 3c0 6-2 12-4 18l-2 3-31-30c-3-3-6-4-10-4-4 0-7 1-10 4-5 4-5 12-1 17l1 1 32 31c-7 3-14 5-22 5z m144 130l-33-32 3-34 36-3 33 31-25 2c-6 1-12 6-12 12z"/>
<glyph glyph-name="ic-v2-enrollment" unicode="&#43;" d="M340 491c6 0 12-3 16-7 4-4 6-10 6-15l0-37 37 0c6 0 11-2 16-6 4-5 6-10 6-16l0-108c21-7 38-22 48-42 11-19 13-42 8-64-6-21-19-39-38-51-11-7-23-12-35-13l-2-1 39 0c9 0 18-4 25-10l3-2c7-8 11-19 11-29l0-54c0-4-2-8-5-10-2-3-6-5-10-5l-147 0c-4 0-7 2-10 5-3 2-4 6-4 10l0 15-110 0c-4 0-8 1-11 4l-25 25-104 0c-6 0-11 2-15 6-4 5-7 10-7 16l0 367c0 5 3 11 7 15 4 4 9 7 15 7z m101-389l-98 0c-3 0-6-2-8-4-1-2-2-5-2-8l0-39 117 0 0 39c1 3 0 6-2 8-2 2-5 4-7 4z m-49 301l-272 0 0-235 66 0c6 0 12-2 16-6 4-5 6-10 6-16l0-66 96 0 0 10c-1 10 3 21 11 29 7 7 17 12 28 12l37 0-4 1c-20 3-38 14-52 30l-3 3c-13 18-20 40-18 62 2 22 12 42 29 57 16 15 38 23 60 23z m-213-264l-38 0 38-38z m154 322l-271 0 0-352 67 0-34 34c-2 3-4 6-4 10l0 257c0 6 2 11 6 16 5 4 10 6 16 6l220 0z m59-183c-12 0-23-3-33-10-10-6-17-16-22-26-4-11-5-23-3-34 2-11 8-22 16-30 8-8 19-14 30-16 12-2 23-1 34 3 11 5 20 12 26 22 7 9 10 21 10 32 0 16-6 31-17 42-11 11-26 17-41 17z m-147-51c4 0 8-2 10-5 3-2 5-6 5-10 0-4-2-8-5-10-2-3-6-5-10-5l-81 0c-4 0-7 2-10 5-3 2-4 6-4 10 0 4 1 8 4 10 3 3 6 5 10 5z m0 58c4 0 8-1 10-4 3-3 5-6 5-10 0-4-2-8-5-11-2-2-6-4-10-4l-81 0c-4 0-7 2-10 4-3 3-4 7-4 11 0 4 1 7 4 10 3 3 6 4 10 4z m37 81c4 0 7-2 10-4 3-3 4-7 4-11 0-4-1-7-4-10-3-3-6-4-10-4l-74 0c-4 0-7 1-10 4-3 3-4 6-4 10 0 4 1 8 4 11 3 2 6 4 10 4z"/>
<glyph glyph-name="ic-v2-email-notification" unicode="&#44;" d="M489 262l-26 50 0 45c0 38-33 70-73 70-39 0-71-29-73-66l-254 0c-23 0-42-18-42-39l0-197c0-23 20-40 40-40l301 0c23 0 42 18 42 40l0 68c16 5 27 20 27 37l0 13 46 0c10 0 17 10 12 19z m-274-52l-141 125 242 0 0-23-8-16z m147-98l-299 0c-8 0-14 5-14 13l0 196 156-138c6-5 14-5 19 0l70 63c2-2 5-3 9-3l46 0 0-13c0-17 11-32 27-37l0-68c0-8-6-13-14-13z m42 118c0-7-7-13-14-13-8 0-14 6-14 13l0 13 28 0z m-79 39l18 34c2 4 1 4 1 54 0 24 21 43 46 43 25 0 46-19 46-43 0-50-1-50 1-54l18-34z"/>
<glyph glyph-name="ic-v2-learner" unicode="&#45;" d="M400 299c12 0 24-5 32-13 8-8 13-18 14-29l0-4 0-151c0-13-5-24-14-33-8-8-20-13-32-13l-14 0-5-33c0-2-1-3-1-4l-2-2c-1-2-3-4-5-5-2-1-4-2-6-2-2 0-5 0-7 1-19 11-62 13-87 0-4-1-8-1-12 0-25 13-69 11-88 0-2-1-4-1-7-1-2 0-4 1-6 2-2 1-4 3-5 5-1 1-2 2-2 4l-1 2-4 33-15 0c-12-1-23 4-32 13-8 7-12 17-14 28l0 4 0 152c0 12 5 24 14 33 8 7 18 12 28 13l4 0z m-112-142l-6-1 0-110c21 6 44 6 65 1l7-1 15 110c-26 7-54 8-81 1z m-118 1l-6-2 15-110c22 6 44 6 66 2l7-2 0 110c-27 7-55 8-82 2z m230 110l-267 0c-4 1-8-1-11-4-2-2-4-5-5-8l0-3 0-152c0-4 2-8 5-11 3-2 6-4 9-4l2 0 10 0-11 79c0 3 1 7 2 10 2 3 5 5 8 6 40 15 84 15 125 2 40 13 84 13 124-2 3-1 6-3 8-6 1-3 2-5 2-8l0-2-11-79 10 0c4 0 8 2 11 5 3 2 5 6 5 11l0 151c0 4-2 8-5 11-3 3-7 5-11 4z m-152 232c19 3 38 1 56-6 18-7 33-20 43-36 11-17 17-36 17-55 0-27-10-52-29-70-18-19-43-29-68-29-20 0-38 6-54 17-16 10-29 26-36 44-8 18-9 38-6 57 4 19 13 37 27 51 14 13 31 23 50 27z m44-34c-12 5-25 6-38 4-14-3-26-9-35-19-9-10-16-22-18-35-3-13-2-27 3-40 6-12 14-23 25-30 11-8 24-12 38-12 18 0 35 7 47 20 13 13 20 31 20 49 0 13-4 26-11 38-8 11-18 20-31 25z"/>
<glyph glyph-name="ic-v2-learning-history" unicode="&#46;" d="M434 491c8 0 14-6 14-14l0-387c0-8-6-14-14-14l-41 0 0-41c0-8-6-14-13-14l-302 0c-8 0-14 6-14 14l0 387c0 8 6 14 14 14l76 0 51 51c2 2 6 4 10 4z m-303-83l-32 0 0-359 248 0 0 27-211 0c-7 0-12 6-12 14l0 305c0 3 1 7 4 9z m292 53l-191 0 0-68c0-8-6-14-13-14l-68 0 0-274 272 0z m-101-60c2 3 5 3 9 0 48-26 70-78 70-130l0-6c0-63-50-113-112-113-33 0-64 14-87 39-19 20-28 47-26 75 5 54 55 95 113 95 6 0 11-5 11-11 0-6-5-12-11-11l-1 0c-46 0-86-34-90-75-1-22 6-43 21-58 18-20 43-31 70-32 49 0 90 41 90 91l0 6c0 39-19 79-57 121-2 3-2 6 0 9z m-44-118c16 0 30-13 30-29l0-40c0-5-5-9-10-9-6 0-10 4-10 9l0 10-20 0 0-10c0-5-4-9-9-9-6 0-10 4-10 9l0 40c0 16 13 29 29 29z m0-19c-5 0-10-5-10-10l0-10 20 0 0 10c0 5-4 10-10 10z m44 59c6 0 10-5 10-10l0-5 5 0c5 0 10-4 10-10 0-5-5-10-10-10l-5 0 0-5c0-5-4-9-10-9-5 0-10 4-10 9l0 5-4 0c-6 0-10 5-10 10 0 6 4 10 10 10l4 0 0 5c0 5 5 10 10 10z m-110 130c-3-4-12-12-21-22l-35-34 56 0z"/>
<glyph glyph-name="ic-v2-learning-program" unicode="&#47;" d="M489 64c-8 19-13 39-13 60 0 20 4 41 13 59 1 3 2 5 2 8-1 2-1 4-3 7-1 2-3 3-5 5-2 1-4 1-7 2l-64 0c-6 16-9 33-9 51 0 18 3 35 9 51l42 0c3 1 5 1 7 2 2 2 4 3 5 5 2 3 3 5 3 7 0 3-1 5-2 8-8 18-13 39-13 59 0 21 5 42 13 60 1 2 2 5 2 7 0 3-1 5-3 7-1 3-3 4-5 5-2 2-4 2-7 2l-352 0c-3 0-5 0-8-2-2-1-4-4-5-6-15-30-20-64-15-97 1-3 3-7 5-9 3-2 6-3 10-3 2 0 4 0 6 1 2 1 4 2 5 4 1 1 2 3 3 5 1 2 1 5 0 7-3 24 0 48 9 71l321 0c-5-14-7-29-8-44l-88 0c-4 0-8-2-11-5-2-2-4-6-4-10 0-4 2-8 4-10 3-3 7-5 11-5l89 0c1-10 4-19 7-29l-161 0c-20 1-21-30-1-30l110 0c-4-14-7-29-7-44l-89 0c-4 0-7-1-10-4-3-3-4-6-4-10 0-4 1-8 4-11 3-3 6-4 10-4l90 0c1-10 3-20 6-29l-191 0 0 29 29 0c4 0 8 1 11 4 2 3 4 7 4 11 0 4-2 7-4 10-3 3-7 4-11 4l-124 0c-4 0-7-1-9-3-3-2-5-4-5-8-1-3-1-6 0-9 1-3 4-5 6-7l0-31-27 0c-6 16-9 33-9 51 0 18 3 35 9 51l79 0 0-7c0-2 0-5 2-7 1-2 3-4 5-6 2-1 5-1 7-1 3-1 5 0 8 1l29 17 29-17c3-1 5-2 8-1 2 0 5 0 7 1 2 2 4 4 5 6 2 2 2 5 2 7l0 66 30 0c4 0 7 2 10 5 3 2 4 6 4 10 0 4-1 8-4 10-3 3-6 5-10 5l-125 0c-3 0-6-1-9-3-2-2-4-5-5-8-1-3-1-7 0-10 2-3 4-5 7-7l0-31-88 0c-3 0-6-1-8-2-2-2-4-4-6-6-10-23-16-48-16-73 0-25 6-50 16-73 2-2 4-4 6-6 2-1 5-2 8-2l36 0 0-22c0-3 1-5 2-7 2-3 4-4 6-6 2-1 4-2 7-2 3 0 5 1 7 2l30 17 29-17c2-1 5-2 7-2 3 0 5 1 8 2 2 2 4 3 5 6 1 2 2 4 2 7l0 22 265 0c-5-14-7-29-8-44l-140 0c-3 0-7-2-10-4-3-3-4-7-4-11 0-4 1-7 4-10 3-3 7-4 10-4l141 0c1-10 4-20 7-30l-321 0c-5 12-8 25-9 38-1 4-3 8-6 10-3 3-6 4-10 4-4-1-8-3-10-6-3-3-4-7-4-10 2-20 7-39 16-57 1-2 3-5 5-6 3-2 5-2 8-2l352 0c3 0 5 0 7 2 2 1 4 3 5 5 2 2 2 4 3 7 0 2-1 5-2 7z m-277 302l0-40-15 8c-2 1-4 2-7 2-3 0-5-1-7-2l-15-8 0 40z m-66-179c-2 1-5 2-7 2-3 0-5-1-8-2l-14-9 0 56 44 0 0-56z"/>
<glyph glyph-name="ic-v2-learning-request" unicode="&#58;" d="M477 431c-21 0-217 0-249 0-18 0-34-11-39-27l-21 0c-18 0-36-7-49-20l-15-16 0 49c0 23-19 42-41 42-23 0-42-19-42-42l0-331c0-18 12-34 28-39 6-2 10-3 14-3 3 0 7 1 13 3 16 5 28 21 28 39l0 37c27-10 54-16 82-19l0-18c0-23 19-42 42-42l249 0c8 0 14 6 14 14l0 359c0 8-6 14-14 14z m-401-289l0-56c0-8-6-14-13-14-8 0-14 6-14 14l0 331c0 8 6 14 14 14 7 0 13-6 13-14 0-32 0-245 0-275z m304 262l27 0 0-36c-2 2-6 8-13 8-8 0-12-6-14-8z m-166-14c0 7 6 14 14 14l13 0 0-55-27 0z m27-318l-13 0c-8 0-14 6-14 14l0 16c6-1 12-1 19-1l8 0z m14 57l-22 0c-44 0-88 7-129 23l0 177 35 35c7 8 18 12 29 12l18 0 0-41c0-8 6-14 14-14l83 0c7 0 13-6 13-14 0-7-6-13-13-13l-83 0c-8 0-14-6-14-14 0-8 6-14 14-14 6 0 132 0 139 0 7 0 13-6 13-14 0-7-6-13-13-13-7 0-133 0-139 0-8 0-14-6-14-14 0-8 6-14 14-14l83 0c7 0 13-6 13-14 0-7-6-13-13-13-11 0-74 0-83 0-8 0-14-6-14-14 0-8 6-14 14-14l55 0c8 0 14-6 14-14 0-7-6-13-14-13z m208-57l-194 0 0 32c16 5 27 20 27 38 0 6-1 11-3 16 18 4 31 20 31 39 0 5-1 10-3 14l18 0c22 0 41 19 41 41 0 23-19 42-41 42l-18 0c2 4 3 9 3 13 0 23-19 42-41 42l-14 0 0 55 83 0 0-69c0-6 4-11 9-13 5-2 11-1 15 3l18 18 17-18c4-4 10-5 15-3 5 2 9 7 9 13l0 69 28 0z"/>
<glyph glyph-name="ic-v2-location" unicode="&#59;" d="M256 491c106 0 192-88 192-196 0-66-34-131-91-192-20-21-40-40-61-57-8-6-14-11-20-15-4-3-7-5-8-6-7-5-17-5-24 0-1 1-4 3-8 6-6 4-12 9-20 15-21 17-41 36-61 57-57 61-91 126-91 192 0 108 86 196 192 196z m0-32c-83 0-161-80-161-164 0-53 33-113 83-167 18-19 39-38 58-53 5-4 16-10 20-13 4 3 15 9 20 13 19 15 40 34 58 53 50 54 82 114 82 167 0 84-77 164-160 164z m0-85c43 0 78-35 78-79 0-44-35-80-78-80-43 0-78 36-78 80 0 44 35 79 78 79z m0-42c-20 0-36-17-36-37 0-21 16-37 36-37 20 0 36 16 36 37 0 20-16 37-36 37z"/>
<glyph glyph-name="ic-v2-message" unicode="&#60;" d="M158 128l-79-79c-13-13-36-4-36 15l0 341c0 36 28 64 64 64l298 0c36 0 64-28 64-64l0-213c0-35-28-64-64-64z m-73-12l49 48c4 4 10 7 15 7l256 0c12 0 22 9 22 21l0 213c0 12-10 22-22 22l-298 0c-12 0-22-10-22-22z"/>
<glyph glyph-name="ic-v2-prerequisite" unicode="&#61;" d="M372 147c10 0 19-8 20-18l0-2 0-81c0-11-8-19-18-20l-2-1-223 0c-10 0-19 8-20 18l0 3 0 81c0 10 8 19 18 20l2 0z m0 162c10 0 19-8 20-18l0-2 0-81c0-11-8-19-18-20l-2-1-223 0c-10 0-19 8-20 18l0 3 0 25-81 0c-5 0-9-8-10-13l0-2 0-103c0-5 4-14 9-15l1-1 23 0c-4 4-3 11 0 14 4 4 9 4 13 2l2-1 20-21c3-3 4-8 1-12l-1-2-20-20c-3-3-7-4-10-3-4 1-7 4-7 7-1 3-1 6 1 9l1 1 3 3-26 0c-16 0-29 12-30 28l0 2 0 122c0 16 12 29 27 30l3 0 81 0 0 31c0 10 8 19 18 20l2 0z m-14-192l-196 0 0-61 196 0z m-121-11c5 0 9-4 9-9 0-4-4-8-9-8l-51 0c-4 0-8 4-8 8 0 5 4 9 8 9z m135 365c10 0 19-8 20-18l0-2 0-31 81 0c16 0 29-12 30-27l1-3 0-122c0-15-12-28-28-30l-3 0-26 0 3-3c4-4 4-10 0-14-4-4-9-4-13-2l-1 2-21 20c-3 3-3 9-1 13l1 1 21 21c4 3 10 3 14-1 3-3 4-8 1-12l-1-2-3-3 26 0c5 0 9 4 10 9l0 1 0 122c0 5-3 9-8 10l-2 0-81 0 0-30c0-11-8-19-18-20l-2-1-223 0c-10 0-19 8-20 18l0 3 0 81c0 10 8 19 18 20l2 0z m-14-192l-196 0 0-61 196 0z m-121-14c5 0 9-4 9-8 0-4-3-8-7-9l-2 0-51 0c-4 0-8 4-8 9 0 4 4 8 8 8z m-153 174l2-1 20-21c3-3 4-9 1-12l-1-2-20-20c-3-3-7-4-10-3-4 1-7 4-7 7-1 3-1 6 1 9l1 1 3 3-56 0c-6 0-10 5-10 10 0 5 3 9 8 10l2 0 56 0-3 3c-4 4-3 10 0 14 4 4 9 4 13 2z m274 1l-196 0 0-60 196 0z m-121-13c5 0 9-4 9-9 0-4-4-8-9-8l-51 0c-4 0-8 4-8 8 0 5 4 9 8 9z"/>
<glyph glyph-name="ic-v2-preview" unicode="&#62;" d="M263 427c63 0 119-31 166-82 16-18 30-36 42-55 8-11 13-20 15-26 3-5 3-11 0-16-2-6-7-15-15-26-12-19-26-37-42-55-47-51-103-82-166-82-64 0-119 31-166 82-17 18-31 36-43 55-7 11-12 20-14 26-3 5-3 11 0 16 2 6 7 15 14 26 12 19 26 37 43 55 47 51 102 82 166 82z m0-43c-50 0-95-25-134-67-14-15-27-32-37-48-3-5-6-9-8-13 2-4 5-8 8-13 10-16 23-33 37-48 39-42 84-67 134-67 50 0 95 25 134 67 14 15 26 32 37 48 3 5 5 9 8 13-3 4-5 8-8 13-11 16-23 33-37 48-39 42-84 67-134 67z m0-52c41 0 75-34 75-76 0-42-34-76-75-76-42 0-75 34-75 76 0 42 33 76 75 76z m0-38c-21 0-38-17-38-38 0-21 17-38 38-38 21 0 37 17 37 38 0 21-16 38-37 38z"/>
<glyph glyph-name="ic-v2-public-learning" unicode="&#82;" d="M256 469c118 0 213-95 213-213 0-118-95-213-213-213-118 0-213 95-213 213 0 118 95 213 213 213z m-96-232l-77 0c8-73 60-132 129-150-30 44-48 96-52 150z m269 0l-77 0c-4-54-22-105-52-150 69 18 121 77 129 150z m-116 0l-114 0c5-53 25-103 57-145 33 42 52 92 57 145z m-101 188l-1 0c-68-18-120-77-128-150l77 0c4 54 22 105 52 150z m44-5c-33-42-52-92-57-145l114 0c-5 53-25 103-57 145z m44 5l4-6c27-43 44-92 48-144l77 0c-8 73-60 132-129 150z"/>
<glyph glyph-name="ic-v2-usage-log" unicode="&#91;" d="M210 479c19 0 139-1 132-49 21-9 32-21 34-34 0-2 0-26 0-28l67 0c14 0 26-13 26-28l0-168c0-15-12-28-26-28l-67 0 0-52c0-41-86-59-167-59-80 0-166 18-166 59l0 63c0 11 6 22 16 28-10 6-16 16-16 28l0 62c0 12 6 23 16 28-10 6-16 17-16 28l0 63c0 15 11 28 33 38-6 49 119 49 133 49z m139-361c-31-15-87-23-140-23-52 0-108 8-140 23l0-26c2-8 48-29 140-29 92 0 138 21 140 29z m-260 47c-18-6-20-12-20-12 2-7 48-28 140-28 65 0 107 10 127 19l-113 0c-7 0-13 2-18 6-39 0-78 5-116 15z m354 175l-212 0 0-56c0-5-3-9-6-12l-23-16 23-16c3-3 6-7 6-12l0-56 212 0z m-374-101l0-28c0 0 3-7 24-15 25-10 63-16 103-17l0 35c-49 2-98 10-127 25z m323 73c7 0 13-6 13-14l0-70c8 0 13-6 13-14 0-8-5-14-13-14l-140 0c-7 0-13 6-13 14 0 8 6 14 13 14l7 0 0 14c0 8 6 14 13 14 8 0 13-6 13-14l0-14 27 0 0 35c0 8 6 14 13 14 8 0 14-6 14-14l0-35 26 0 0 70c0 8 6 14 14 14z m-303-25c-15-6-19-12-20-13l0 0c2-7 33-22 93-28l0 0c-4 3-6 7-6 11 0 8 6 12 12 15-27 2-53 7-79 15z m-20 67l0-26c0 0 3-6 24-13 25-8 63-13 103-14l0 31c-49 1-98 8-127 22z m254 54c-35-19-104-19-114-19l-1 0c-14 0-79 1-112 19-24-8-27-16-27-16 2-8 47-31 136-31 5 4 11 7 18 7l67 0c46 8 58 21 59 24 4 0-17 15-26 16z m-114 40c-57 0-93-9-104-15l0-1c12-6 47-15 104-15 57 0 93 9 104 15l1 1c-11 6-47 15-105 15z"/>
<glyph glyph-name="ic-v2-sorting" unicode="&#95;" d="M155 85c4 0 8-2 11-6 3-4 5-9 5-15 0-6-2-11-5-15-3-4-7-6-11-6l-96 0c-5 0-9 2-12 6-3 4-4 9-4 15 0 6 1 11 4 15 3 4 7 6 12 6z m229 384c3 0 6 0 8-1 3-1 5-3 7-5l64-64c4-4 6-9 6-15 0-6-2-11-6-15-4-4-9-6-15-6-6 0-11 2-15 6l-28 27 0-280 28 27c4 4 9 6 15 6 6 0 11-2 15-6 4-4 6-9 6-15 0-6-2-11-6-15l-64-64c-2-2-4-4-7-5-2-1-5-1-8-1-3 0-6 0-8 1-3 1-5 3-7 5l-64 64c-4 4-6 9-6 15 0 6 2 11 6 15 4 4 9 6 15 6 6 0 11-2 15-6l28-28 0 281-28-27c-4-4-9-6-15-6-6 0-11 2-15 6-4 4-6 9-6 15 0 6 2 11 6 15l64 64c2 2 4 4 7 5 2 1 5 1 8 1z m-188-256c5 0 9-2 12-6 4-4 5-9 5-15 0-6-1-11-5-15-3-4-7-6-12-6l-136 0c-5 0-9 2-12 6-4 4-5 9-5 15 0 6 1 11 5 15 3 4 7 6 12 6z m23 128c4 0 8-2 11-6 3-4 5-9 5-15 0-6-2-11-5-15-3-4-7-6-11-6l-160 0c-5 0-9 2-12 6-3 4-4 9-4 15 0 6 1 11 4 15 3 4 7 6 12 6z m42 128c4 0 8-2 11-6 4-4 5-9 5-15 0-6-1-11-5-15-3-4-7-6-11-6l-202 0c-4 0-8 2-11 6-4 4-5 9-5 15 0 6 1 11 5 15 3 4 7 6 11 6z"/>
<glyph glyph-name="ic-v2-condition" unicode="&#96;" d="M292 228c4 4 10 5 14 3l50-17 99-35c5-2 8-7 9-12 0-5-3-10-7-13l-24-13 39-26c3-2 6-6 6-10 0-4-1-8-4-11l-43-43c-3-3-6-4-10-4-4 0-8 2-10 5l-30 37-15-25c-2-5-7-8-13-7-5 0-9 4-11 9l-18 49-9 27-26 72c-1 5 0 10 3 14z m32-32l33-93 10 17c2 4 6 6 10 7 1 0 1 0 2 0 4 0 7-2 10-5l34-41 20 21-43 29c-4 2-7 7-6 12 0 4 3 9 7 11l16 9z m-83 7c12 0 21-9 21-21 0-12-9-21-21-21l-197 0c-11 0-21 9-21 21 0 12 10 21 21 21z m-54 152c25 0 46-15 55-38l55 0c12 0 22-9 22-21 0-12-10-21-22-21l-55 0c-9-23-30-39-55-39-26 0-47 16-56 39l-87 0c-11 0-21 9-21 21 0 12 10 21 21 21l87 0c9 23 30 38 56 38z m0-27c-18 0-32-14-32-32 0-18 14-32 32-32 17 0 32 14 32 32 0 18-15 32-32 32z m161 145c25 0 47-15 55-38l45 0c11 0 21-9 21-21 0-12-10-21-21-21l-45 0c-8-23-30-39-55-39-25 0-47 16-56 39l-248 0c-11 0-21 9-21 21 0 12 10 21 21 21l248 0c9 23 31 38 56 38z m0-27c-18 0-32-14-32-32 0-18 14-32 32-32 18 0 32 14 32 32 0 18-14 32-32 32z"/>
<glyph glyph-name="ic-v2-purchase-report" unicode="&#124;" d="M322 480c8 0 15-5 17-13l1-2 3-22 63 0c9 0 17-7 18-16l0-2 0-57 38 0c11 0 20-10 18-21l0-2-38-150c-1-7-7-12-14-13l-2-1-295-17c5-11 16-19 28-21l3 0 206 0c31 0 56-25 56-56 0-30-25-55-56-55-37 0-64 36-53 71l1 3-101 0c13-36-14-74-53-74-46 0-72 53-44 90-14 11-24 28-26 47 0 1-20 216-21 236l0 1-21 0c-10 0-18 8-18 19 0 9 7 17 16 18l2 0 37 0c9 0 17-6 18-15l1-2 5-58 33 0 0 47c0 10 7 17 16 18l2 1 57 0 32 40c3 3 7 6 12 6l2 0z m47-371c-13 0-23-11-23-24 0-12 10-23 23-23 13 0 23 11 23 23 0 13-10 24-23 24z m-208 3c-13 0-23-11-23-23 0-13 10-23 23-23 13 0 23 10 23 23 0 12-10 23-23 23z m287 223l-332 0 12-143 291 18z m-50 81l-48 0 8-48 40 0z m-80 36l-47 0-25-32 8-52 79 0z m-93-46l-44 0 0-38 49 0z"/>
<glyph glyph-name="ic-v2-competency-gap" unicode="&#50;" d="M153 479c49 0 88-39 88-88 0-47-37-85-83-88l-4 0 58 0c19 0 35-14 37-33l0-3 0-59c0-19-15-35-34-37l-3 0-7 0 0-29 22 0c11 0 20-9 22-20l0-2 0-44c0-11-9-21-20-22l-2 0-147 0c-11 0-21 9-22 20l0 2 0 44c0 11 9 21 20 22l2 0 22 0 0 29-7 0c-20 0-35 15-37 34l0 3 0 59c0 19 15 35 34 36l3 0 58 0c-49 1-88 40-88 88 0 49 40 88 88 88z m66-366l-132 0 0-30 132 0z m162 122c4 0 8-2 11-6l29-36c5-7 4-16-2-21-6-5-15-4-20 2l-4 4 0-68c0-12-10-22-22-22l-80 0c-8 0-15 7-15 15 0 8 7 14 15 14l73 0 0 61-3-4c-5-6-14-7-21-2-6 5-7 14-2 21l29 36c3 4 7 6 12 6z m-169 39l-117 0c-4 0-7-3-8-6l0-1 0-59c0-4 3-7 6-7l2 0 7 0c15 0 28-12 29-27l0-3 0-29 44 0 0 29c0 16 12 28 27 30l3 0 7 0c4 0 7 2 7 6l0 1 0 59c0 4-3 7-7 7z m158 166c5 0 10-1 14-4 4-3 8-6 10-11l14-28 31-4c4-1 9-3 13-6 3-3 6-8 8-12 1-5 1-10 0-15-1-4-3-9-7-12l-22-22 5-31c1-5 0-10-2-14-1-5-5-9-8-12-4-2-9-4-14-5-5 0-10 1-14 3l-28 15-28-15c-4-2-9-3-14-3-5 1-9 3-13 5-4 3-7 7-9 12-2 4-3 9-2 14l5 31-22 22c-4 3-6 8-7 12-1 5-1 10 0 15 2 4 5 9 8 12 4 3 9 5 14 6l31 4 13 28c3 5 6 8 10 11 4 3 9 4 14 4z m0-46l-10-21c-1-2-3-4-5-6-3-2-5-3-8-3l-23-3 17-16c2-2 3-5 4-7 1-3 1-6 1-9l-4-22 20 10c2 2 5 2 8 2 3 0 6 0 8-2l20-10-3 22c-1 3-1 6 0 9 1 2 3 5 5 7l16 16-23 3c-2 0-5 1-7 3-3 2-5 4-6 6z m-217 56c-32 0-58-26-58-59 0-32 26-58 58-58 33 0 59 26 59 58 0 33-26 59-59 59z"/>
<glyph glyph-name="ic-v2-category" unicode="&#37;" d="M334 483c7 0 13-6 13-13l0-94 93 0c22 0 40-18 40-40l0-52c0-10-4-20-10-27 6-7 10-16 10-26l0-53c0-10-4-19-10-26 6-7 10-16 10-26l0-53c0-22-18-39-40-39l-370 0c-22 0-39 17-39 39l0 53c0 10 4 19 10 26-6 7-10 16-10 26l0 53c0 10 4 19 10 26-6 7-10 17-10 27l0 52c0 22 17 40 39 40l93 0 0 67c0 22 18 40 40 40z m98-348l-354 0c-7 0-12-5-12-12l0-51c0-7 5-12 12-12l354 0c7 0 13 5 13 12l0 51c0 7-6 12-13 12z m-253 106l-101 0c-7 0-12-6-12-13l0-50c0-7 5-13 12-13l354 0c7 0 13 6 13 13l0 50c0 7-6 13-13 13l-89 0 0-3c0-6-5-12-12-12l-118 0c-13 0-25 6-34 15z m142 158l-72 0 0-137 72 0z m-122 1l0-118c0-11 9-20 20-20l4 0 0 136-12 0c-5 0-9 0-12 2z m234-57l-86 0 0-73 86 0c6 0 12 6 12 13l0 48c0 7-6 12-12 12z m-270 0l-85 0c-7 0-12-6-12-12l0-48c0-7 5-13 12-13l86 0c-1 2-1 4-1 6z m158 115l-118 0c-8 0-14-8-14-19 0-11 6-19 14-19l118 0z"/>
<glyph glyph-name="ic-v2-change-language" unicode="&#40;" d="M239 469c27 0 50-22 50-49l0-90 152 0c28 0 50-22 50-49l0-123c0-27-22-49-50-49l-20 0-15-56c-2-5-6-9-12-10-1 0-1 0-2 0-5 0-9 3-12 7l-31 59-76 0c-27 0-50 22-50 49l0 90-60 0-31-59c-3-4-7-7-12-7-1 0-1 0-2 0-5 1-10 5-12 10l-15 56-20 0c-28 0-50 22-50 48l0 124c0 27 22 49 50 49z m202-166l-168 0c-12 0-17-10-17-22l0-122c0-12 5-19 17-19l81 0c5 0 10 0 15-11l19-36 10 33c1 6 8 14 14 14l29 0c12 0 20 7 20 19l0 122c0 12-8 22-20 22z m-82-33c26 0 41-15 41-37l0-53-21 0 0 51c0 14-8 22-22 22-11 0-20-5-23-13l6-2c7-3 9-5 9-12l0-46-20 0 0 47-14 6c2 22 19 37 44 37z m-120 170l-169 0c-12 0-19-8-19-20l0-125c0-12 8-20 20-20l30 0c6 0 12-4 13-10l10-33 19 36 0 0c2 4 7 13 12 13l62 0c0 23 17 44 39 49l0 90c0 12-5 20-17 20z m-82-25c5 0 9-3 10-7l36-92c1-4 0-7-2-10-2-3-5-5-8-5l-4 0c-4 0-8 3-10 7l-8 23-32 0-8-23c-2-4-6-7-10-7l-4 0c-3 0-6 2-8 5-2 3-3 6-2 10l36 92c1 4 5 7 9 7z m-2-41l-7-20 14 0c-2 6-5 14-7 20z"/>
<glyph glyph-name="ic-v2-change-profile-image" unicode="&#41;" d="M217 450c67 0 125-34 159-87l39 40c14 14 37 14 51 0 14-14 14-37 0-51l-61-62c2-11 2-22 2-33 0-106-85-193-190-193-105 0-190 87-190 193 0 107 85 193 190 193z m59-266l-114 0c-5 0-9-8-10-18l0-2 0-54c20-9 42-14 65-14 25 0 48 6 69 16l0 52c0 11-4 20-10 20z m-59 234c-88 0-159-72-159-161 0-52 25-98 63-128l0 34c0 26 18 47 41 49l3 0 105 0c23 0 42-20 44-46l0-3 0-34c38 30 62 76 62 128l0 4-17-18c-2-1-4-3-6-3l-45-12c-9-2-16 6-14 15l11 46c0 2 2 4 3 5l45 46c-27 47-78 78-136 78z m0-48c36 0 65-30 65-66 0-37-29-66-65-66-36 0-65 29-65 66 0 36 29 66 65 66z m215 16l-105-106-6-23 23 5 105 107c5 5 5 12 0 17-5 5-12 5-17 0z m-215-42c-21 0-39-18-39-40 0-22 18-40 39-40 22 0 39 18 39 40 0 22-17 40-39 40z"/>
<glyph glyph-name="ic-v2-close" unicode="&#42;" d="M108 442l3-2 145-145 145 145c11 11 28 11 39 0 10-10 11-25 2-36l-2-3-145-145 145-145c11-11 11-28 0-39-10-10-25-11-36-2l-3 2-145 145-145-145c-11-11-28-11-39 0-10 10-11 25-2 36l2 3 145 145-145 145c-11 11-11 28 0 39 10 10 25 11 36 2z"/>
<glyph glyph-name="ic-v2-content-provider" unicode="&#63;" d="M277 481c4 0 7-1 10-4l106-105c2-3 4-7 4-10l0-43 21 0c12 0 21-9 21-21l0-41c33-14 50-52 39-86-9-27-33-46-60-49l-2 0-10 0 1 0c3 0 5 0 7 0l2 0 32 0c18 0 32-15 33-32l0-3 0-42c0-8-6-14-14-14l-112 0c-8 0-14 6-15 14l0 14-288 0c-12 0-21 9-21 21l0 289c0 11 9 21 21 21l21 0 0 70c0 12 9 21 21 21z m171-387l-75 0c-2 0-4-3-4-7l0-28 84 0 0 28c0 4-2 7-5 7z m-242 263l-144 0 0-270 278 0c0 19 15 35 33 35l33 0-2 0c-2 1-3 1-4 1l-4 1c-35 7-59 40-55 76 3 36 34 63 70 63l0 20-180 0c-12 0-25 9-25 25z m205-122c-23 0-42-19-42-42 0-24 19-43 42-43 23 0 42 19 42 43 0 23-19 42-42 42z m-148 218l-162 0 0-63 113 0c11 0 21-10 21-21l0-50 134 0 0 29-85 0c-11 0-21 9-21 21z m28-20l0-57 58 0z"/>
<glyph glyph-name="ic-v2-explore" unicode="&#64;" d="M256 491c130 0 235-105 235-235 0-130-105-235-235-235-130 0-235 105-235 235 0 130 105 235 235 235z m0-43c-106 0-192-86-192-192 0-106 86-192 192-192 106 0 192 86 192 192 0 106-86 192-192 192z m84-81c16 5 32-11 27-27l-46-136c-2-6-7-11-13-13l-136-46c-16-5-32 11-27 27l46 136c2 6 7 11 13 13z m-27-54l-85-29-29-85 85 29z"/>
<glyph glyph-name="ic-v2-export-report" unicode="&#94;" d="M235 192c0-12 9-21 21-21l2 0c11 1 19 10 19 21l0 204 71-70c8-8 21-8 30 0 8 9 8 22 0 30l-107 107c-1 1-1 2-2 2-1 1-1 1-2 1 0 0 0 1-1 1 0 0-1 0-1 0 0 0-1 1-1 1 0 0-1 0-1 0-1 0-1 0-1 1-1 0-1 0-2 0 0 0 0 0-1 0 0 0-1 0-1 0-1 0-1 0-1 0-1 0-1 0-1 0-1 0-2 0-3 0-1 0-1 0-1 0-1 0-1 0-2 0 0-1 0-1-1-1 0 0-1 0-1 0 0 0-1-1-1-1 0 0-1 0-1 0-1 0-1-1-1-1-1 0-1 0-2-1 0 0 0 0 0 0-1-1-1-1-2-2l-107-107c-8-8-8-21 0-30l2-2c9-6 21-5 28 2l71 70z m234 0c0 12-9 21-21 21-12 0-21-9-21-21l0-85c0-12-10-22-22-22l-298 0c-12 0-22 10-22 22l0 85c0 12-9 21-21 21-12 0-21-9-21-21l0-85c0-36 28-64 64-64l298 0c36 0 64 28 64 64z"/>
<glyph glyph-name="ic-v2-facebook" unicode="&#123;" d="M207 231c-1 0-33 0-48 0-7 0-10 3-10 10 0 20 0 39 0 58 0 8 3 11 10 11l48 0c0 1 0 29 0 42 0 19 3 37 13 54 10 17 24 29 43 36 12 4 24 6 37 6l47 0c7 0 9-3 9-10l0-54c0-7-2-10-9-10-13 0-26 0-39 0-13 0-20-7-20-20 0-15 0-29 0-43l56 0c8 0 11-3 11-11l0-58c0-8-3-10-11-10-17 0-54 0-56 0l0-157c0-8-2-11-11-11-20 0-40 0-60 0-7 0-10 3-10 10 0 51 0 156 0 157z"/>
<glyph glyph-name="ic-v2-font-size" unicode="&#125;" d="M270 334c11 0 22-9 22-21 0-12-11-22-22-22l-92 0 0-172c0-12-10-21-22-21-11 0-22 9-22 21l0 172-91 0c-11 0-22 10-22 22 0 12 11 21 22 21z m192 93c12 0 22-10 22-22 0-12-10-22-22-22l-91 0 0-241c0-12-10-21-22-21-12 0-22 9-22 21l0 241-91 0c-12 0-22 10-22 22 0 12 10 22 22 22z"/>
<glyph glyph-name="ic-v2-google" unicode="&#126;" d="M64 256c0 106 86 192 192 192 43 0 83-14 117-40l-45-58c-20 16-46 25-72 25-66 0-119-53-119-119 0-66 53-119 119-119 53 0 98 35 113 82l-113 0 0 74 192 0 0-37c0-106-86-192-192-192-106 0-192 86-192 192z"/>
<glyph glyph-name="ic-v2-goto-dashboard" unicode="&#92;" d="M229 168c10 0 18-8 18-18l0-110c0-10-8-19-18-19l-189 0c-10 0-19 9-19 19l0 110c0 10 9 18 19 18z m243 158c10 0 19-9 19-19l0-267c0-10-9-19-19-19l-188 0c-11 0-19 9-19 19l0 267c0 10 8 19 19 19z m-262-195l-152 0 0-73 152 0z m244 158l-152 0 0-231 152 0z m-225 202c10 0 18-9 18-19l0-267c0-10-8-19-18-19l-189 0c-10 0-19 9-19 19l0 267c0 10 9 19 19 19z m-19-37l-152 0 0-231 152 0z m262 37c10 0 19-9 19-19l0-110c0-10-9-18-19-18l-188 0c-11 0-19 8-19 18l0 110c0 10 8 19 19 19z m-18-37l-152 0 0-73 152 0z"/>
<glyph glyph-name="ic-v2-goto-homepage" unicode="&#57344;" d="M437 469c30 0 54-24 54-53l0-320c0-29-24-53-54-53l-362 0c-30 0-54 24-54 53l0 320c0 29 24 53 54 53z m15-116l-392 0 0-259c1-12 2-13 15-13l362 0c13 0 15 2 15 15z m-190-22l94-70c3-1 4-4 4-7l0-109c0-17-14-30-31-30l-146 0c-18 0-32 13-32 30l0 109c0 3 2 6 4 7l94 70c4 2 10 2 13 0z m-6-25l-79-59 0-99c0-5 4-9 10-9l29 0 0 84c0 5 4 9 9 10l1 0 60 0c6 0 10-4 10-10l0-84 30 0c5 0 10 4 10 9l0 99z m21-88l-42 0 0-79 42 0z m162 213l-364 0c-13 0-14-1-15-13l0-26 392 0 0 24c0 13-1 14-13 15z"/>
<glyph glyph-name="ic-v2-materials" unicode="&#57345;" d="M487 184c4-10 1-21-8-26l-2-1-203-98c-10-5-22-6-33-2l-3 2-203 98c-10 5-14 17-9 27 4 9 15 13 25 10l2-1 203-98 0 0 1 0 203 98c10 5 22 1 27-9z m0 83c4-9 1-20-8-26l-2-1-203-98c-10-5-22-5-33-1l-3 1-203 98c-10 5-14 17-9 27 4 10 15 14 25 11l2-1 203-98 0 0 1 0 203 98c10 5 22 0 27-10z m-222 179l194-97c14-7 14-28 0-35l-194-97c-6-2-12-2-18 0l-194 97c-14 7-14 28 0 35l194 97c6 3 12 3 18 0z m-9-45l-139-69 139-70 139 70z"/>
<glyph glyph-name="ic-v2-more" unicode="&#57346;" d="M171 256c0-24-19-43-43-43-24 0-43 19-43 43 0 24 19 43 43 43 24 0 43-19 43-43z m128 0c0-24-19-43-43-43-24 0-43 19-43 43 0 24 19 43 43 43 24 0 43-19 43-43z m85-43c24 0 43 19 43 43 0 24-19 43-43 43-24 0-43-19-43-43 0-24 19-43 43-43z"/>
<glyph glyph-name="ic-v2-news-update" unicode="&#57347;" d="M411 491c27 0 50-23 50-51l0-368c0-28-23-51-50-51l-310 0c-27 0-50 23-50 51l0 368c0 28 23 51 50 51z m10-51c0 13 2 12-10 12l-310 0c-12 0-10 1-10-12l0-360c0-13-2-20 10-20l310 0c10 0 10 10 10 12z m-35-293c8 0 14-4 14-9 0-6-6-10-14-10l-266 0c-8 0-14 4-14 10 0 5 6 9 14 9z m-167 142c7 0 12-5 12-12l0-91c0-6-5-11-12-11l-90 0c-6 0-11 5-11 11l0 91c0 7 5 12 11 12z m167-94c8 0 14-5 14-10 0-6-6-10-14-10l-99 0c-8 0-14 4-14 10 0 5 6 10 14 10z m-178 71l-68 0 0-68 68 0z m178-24c8 0 14-5 14-10 0-5-6-10-14-10l-99 0c-8 0-14 5-14 10 0 5 6 10 14 10z m0 47c8 0 14-5 14-10 0-5-6-10-14-10l-99 0c-8 0-14 5-14 10 0 5 6 10 14 10z m-57 124c5 0 11-2 16-4 2-2 3-5 2-7l0-2 0 0c-2-3-6-4-9-2-3 2-6 3-9 3-5 0-8-2-8-6 0-4 3-5 6-6 3-1 8-3 10-4 8-3 13-8 13-17 0-14-12-21-24-21-7 0-13 3-18 6-3 1-3 4-2 7l0 1 1 1c2 3 5 4 8 2 4-3 9-4 12-4 5 0 9 2 9 6 0 4-5 6-8 7-3 1-7 3-10 4-1 1-4 2-7 4-3 3-5 7-5 13 0 6 3 11 7 14 3 3 9 5 16 5z m-207-1c2 0 3 0 4-2l1-1 26-40-1 37c0 3 2 5 5 6l1 0 3 0c3 0 5-2 6-4l0-2 0-52c0-3-2-5-5-6l-1 0-6 0c-2 0-3 1-4 2l-1 1-26 41 0-38c0-3-2-5-5-6l-1 0-3 0c-3 0-5 2-5 5l-1 1 0 52c0 3 2 5 5 6l1 0z m88 0c3 0 6-2 6-6 0-3-2-5-5-6l-1 0-20 0 0-13 19 0c3 0 6-3 6-6 0-3-2-5-5-6l-1 0-19 0 0-15 21 0c3 0 5-2 6-4l0-2 0 0c0-3-2-5-5-6l-1 0-30 0c-3 0-5 2-6 5l0 1 0 52c0 3 2 5 4 6l2 0z m17 0c3 0 5-1 6-3l0-1 10-39 10 39c1 2 3 4 5 4l1 0 6 0c2 0 4-1 5-3l1-1 10-39 10 39c0 2 2 4 4 4l1 0 4 0c3 0 6-3 5-6l0-1-15-53c0-2-2-3-4-4l-1 0-7 0c-2 0-4 1-5 3l0 1-11 40-11-40c-1-2-2-3-4-4l-2 0-6 0c-2 0-4 1-5 3l0 1-15 53c-1 3 1 6 4 7l1 0z"/>
<glyph glyph-name="ic-v2-podcast" unicode="&#57348;" d="M388 279c12 0 22-10 22-23 0-78-56-144-132-155l0-47c0-12-10-22-22-22-12 0-22 10-22 22l0 47c-76 11-133 77-133 155 0 13 10 23 22 23 13 0 22-10 22-23 0-62 50-112 111-112 61 0 110 50 110 112 0 13 10 23 22 23z m-132 201c49 0 88-40 88-89l0-135c0-49-39-90-88-90-49 0-88 41-88 90l0 135c0 49 39 89 88 89z m0-44c-25 0-44-20-44-45l0-135c0-25 19-45 44-45 24 0 44 20 44 45l0 135c0 25-20 45-44 45z"/>
<glyph glyph-name="ic-v2-point" unicode="&#57349;" d="M256 480c124 0 224-100 224-224 0-124-100-224-224-224-124 0-224 100-224 224 0 124 100 224 224 224z m0-48c-103 0-176-73-176-176 0-103 73-176 176-176 103 0 176 73 176 176 0 103-73 176-176 176z m-14-48c5 11 23 11 28 0l32-64 70-10c5-1 11-5 12-11 2-5 1-12-4-16l-50-49 12-70c1-6-2-12-7-16-2-2-6-3-9-3-3 0-5 1-7 2l-63 33-63-33c-5-3-11-2-16 1-5 4-8 10-7 16l12 70-50 49c-5 4-6 11-4 16 1 6 7 10 12 11l70 10z m14-44l-21-41c-2-5-7-8-12-9l-46-7 34-32c3-4 5-9 4-15l-8-45 42 21c2 1 4 2 7 2 3 0 5-1 7-2l42-21-8 45c-1 6 1 11 4 15l34 32-46 7c-5 1-10 4-12 9z"/>
<glyph glyph-name="ic-v2-scan-qr-code" unicode="&#57350;" d="M354 491c28 0 51-24 51-54l0-362c0-30-23-54-51-54l-196 0c-28 0-51 24-51 54l0 362c0 30 23 54 51 54z m2-39l-25 0c0-2 0-4 0-5 0-19-15-35-33-35l-84 0c-18 0-33 16-33 35 0 1 0 3 0 5l-23 0c-12 0-14-1-14-13l0-364c0-13 1-15 14-15l196 0c13 0 14 2 14 15l0 362c0 13-1 14-12 15z m-179-235c7 0 14-7 14-15l0-29c0-3 2-5 4-5l28 0c8 0 14-7 14-15 0-8-6-14-14-14l-28 0c-18 0-32 15-32 34l0 29c0 8 6 15 14 15z m158 0c8 0 14-7 14-15l0-29c0-19-14-34-32-34l-28 0c-8 0-14 6-14 14 0 8 6 15 14 15l28 0c2 0 4 2 4 5l0 29c0 8 7 15 14 15z m-112 117c8 0 14-6 14-14 0-9-6-15-14-15l-28 0c-2 0-4-2-4-5l0-29c0-8-7-15-14-15-8 0-14 7-14 15l0 29c0 19 14 34 32 34z m94 0c18 0 32-15 32-34l0-29c0-8-6-15-14-15-7 0-14 7-14 15l0 29c0 3-2 5-4 5l-28 0c-8 0-14 6-14 15 0 8 6 14 14 14z m-14 118l-94 0c0-2 0-4 0-5 0-3 2-5 5-5l84 0c3 0 5 2 5 5 0 1 0 3 0 5z"/>
<glyph glyph-name="ic-v2-time" unicode="&#57352;" d="M254 474c120 0 218-95 218-213 0-118-98-214-218-214-120 0-218 96-218 214 0 118 98 213 218 213z m0-39c-98 0-178-78-178-174 0-97 80-175 178-175 98 0 178 78 178 175 0 96-80 174-178 174z m0-39c11 0 20-8 20-19l0-104 68-34c10-5 14-16 9-26-5-9-17-13-27-8l-79 38c-7 4-11 10-11 18l0 116c0 11 9 19 20 19z"/>
<glyph glyph-name="ic-v2-to-do" unicode="&#57353;" d="M320 480c14 0 26-8 31-21l27 0c32 0 57-26 57-58l0-314c0-32-25-59-57-59l-238 0c-31 0-57 27-57 59l0 314c0 32 26 58 57 58l28 0c6 13 18 21 32 21z m58-58l-32 0c-6-8-16-13-26-13l-120 0c-11 0-20 5-27 13l-33 0c-10 0-19-8-21-19l0-2 0-314c0-11 9-20 19-21l2 0 238 0c11 0 20 8 21 19l0 2 0 314c0 11-8 20-19 21z m-217-218c8 0 15-7 15-16 0-9-7-16-15-16-9 0-16 7-16 16 0 9 7 16 16 16z m200-3c8 0 15-7 15-15 0-8-7-14-15-14l-147 0c-7 0-14 6-14 14 0 8 7 15 14 15z m-200 68c8 0 15-7 15-16 0-9-7-16-15-16-9 0-16 7-16 16 0 9 7 16 16 16z m200-3c8 0 15-6 15-14 0-8-7-15-15-15l-147 0c-7 0-14 7-14 15 0 8 7 14 14 14z m-200 69c8 0 15-8 15-17 0-8-7-16-15-16-9 0-16 8-16 16 0 9 7 17 16 17z m200-3c8 0 15-7 15-15 0-8-7-15-15-15l-147 0c-7 0-14 7-14 15 0 8 7 15 14 15z m-57 128l-88 0c-8 0-15-7-15-15 0-9 7-15 15-15l88 0c8 0 14 6 14 15 0 8-6 15-14 15z"/>
<glyph glyph-name="ic-v2-time-spending" unicode="&#57354;" d="M395 396l0 52 33 0c11 0 20 10 20 21 0 12-9 22-20 22l-344 0c-11 0-20-10-20-22 0-11 9-21 20-21l33 0 0-52c0-55 23-106 61-140-35-31-57-76-60-126-1 0-1 0-1-1 0-4 0-8 0-13l0-52-33 0c-11 0-20-10-20-21 0-12 9-22 20-22l344 0c11 0 20 10 20 22 0 11-9 21-20 21l-33 0 0 52c0 5 0 9 0 14 0 0 0 0 0 0-4 50-26 95-61 126 38 34 61 85 61 140z m-238-332l0 43 198 0 0-43z m132 173c32-19 54-51 63-88l-192 0c9 37 31 69 63 88 7 4 11 11 11 19 0 8-4 15-11 19-41 24-66 71-66 121l0 52 198 0 0-52c0-50-25-97-66-121-7-4-10-11-10-19 0-8 3-15 10-19z"/>
<glyph glyph-name="ic-v2-suggestion" unicode="&#57355;" d="M421 325c0-40-15-79-41-109-17-19-26-42-28-65l0-5 0-28c0-19-12-34-28-40-6-32-34-57-68-57-34 0-62 25-68 57-15 5-27 19-28 36l0 4 0 28c0 25-10 50-27 69-36 40-49 93-38 146 13 62 64 113 126 126 105 22 200-58 200-162z m-126-249l-78 0c6-16 21-27 39-27 18 0 33 11 39 27z m30 56l-138 0 0-14c0-8 6-14 14-14l110 0c8 0 14 6 14 14z m61 190c0 85-75 151-158 133-49-10-88-52-99-103-8-44 2-87 30-120 18-20 29-46 32-72l131 0c2 26 13 52 31 73 21 25 33 56 33 89z m-318-74c5-5 6-12 2-18l-2-1-19-20c-6-5-14-5-20 0-4 5-5 12-1 18l1 2 20 19c5 5 14 5 19 0z m393 1l2-1 20-19c5-6 5-15 0-20-5-5-13-5-18-1l-2 1-19 20c-6 5-6 14 0 19 5 5 12 5 17 1z m-398 76c7 0 13-6 13-14 0-7-5-13-12-14l-1 0-28 0c-8 0-14 6-14 14 0 7 6 13 12 14l2 0z m414 0c8 0 14-6 14-14 0-7-6-13-12-14l-2 0-28 0c-7 0-13 6-13 14 0 7 5 13 12 14l1 0z m-430 89l2-1 19-19c6-6 6-15 0-20-5-5-12-5-17-1l-2 1-20 20c-5 5-5 14 0 19 5 5 13 5 18 1z m436-1c4-5 5-12 1-18l-1-1-20-20c-5-5-14-5-19 0-5 5-6 12-2 18l2 2 19 19c6 5 14 5 20 0z"/>
<glyph glyph-name="ic-v2-search" unicode="&#57356;" d="M227 488c114 0 206-90 206-201 0-47-17-91-45-125l83-82c9-9 9-23 0-32-8-9-23-9-32 0l-84 82c-35-27-79-44-128-44-113 0-205 90-205 201 0 111 92 201 205 201z m0-44c-88 0-159-70-159-157 0-86 71-156 159-156 43 0 83 17 111 44l2 2c1 0 1 1 2 2 28 28 45 66 45 108 0 87-71 157-160 157z"/>
<glyph glyph-name="ic-v2-youtube" unicode="&#57357;" d="M101 424c91 13 219 13 310 0 36-6 65-34 71-70 12-68 12-128 0-196-6-36-35-64-71-70-46-6-100-10-155-10-54 0-109 4-155 10-36 6-65 34-71 70-12 68-12 128 0 196 6 36 35 64 71 70z m294-296c21 3 39 20 43 42 10 60 10 112 0 172-4 22-22 39-43 42-41 6-90 9-139 9-49 0-98-3-138-9-22-3-40-20-44-42-10-60-10-112 0-172 4-22 22-39 43-42 82-12 196-12 278 0z m-201 195c0 11 12 18 22 13l114-68c10-5 10-19 0-24l-114-68c-10-5-22 2-22 13z"/>
<glyph glyph-name="ic-v2-doing" unicode="&#57358;" d="M253 461c13 0 24-8 29-19l23 0c29 0 53-24 53-53l0-32 34 36c19 19 51 19 70 0 19-20 20-52 0-72l-104-107 0-110c0-29-24-53-53-53l-214 0c-29 0-53 24-53 53l0 285c0 29 24 53 53 53l25 0c5 11 16 19 28 19z m52-53l-28 0c-6-7-15-11-24-11l-109 0c-9 0-18 4-24 11l-29 0c-10 0-18-7-19-17l-1-2 0-285c0-10 8-18 17-19l3-1 214 0c10 0 18 8 19 18l1 2-1 76-10-11c-3-2-5-4-8-5l-63-16c-12-3-23 9-20 21l16 64c1 3 2 5 4 8l81 83 1 65c0 10-8 18-18 19z m-197-197c8 0 14-6 14-14 0-9-6-15-14-15-8 0-15 6-15 15 0 8 7 14 15 14z m102-2c7 0 13-6 13-14 0-7-6-13-13-13l-54 0c-7 0-13 6-13 13 0 8 6 14 13 14z m205 160l-91-93 0 0-54-56-8-32 32 8 30 32 0 0 115 117c6 6 6 17 0 24-7 7-17 7-24 0z m-307-98c8 0 14-7 14-15 0-8-6-15-14-15-8 0-15 7-15 15 0 8 7 15 15 15z m102-3c7 0 13-6 13-13 0-8-6-14-13-14l-54 0c-7 0-13 6-13 14 0 7 6 13 13 13z m79 59c8 0 13-6 13-13 0-7-5-13-13-13l-133 0c-7 0-13 6-13 13 0 7 6 13 13 13z m-162 13c2 2 6 2 8 0 2-2 2-6 0-8l-26-25c-1-1-2-2-3-2-1 0-3 1-4 2l-15 15c-2 2-2 5 0 7 2 2 5 2 7 0l12-12z m111 103l-79 0c-7 0-13-6-13-14 0-7 5-13 11-13l2-1 79 0c8 0 13 7 13 14 0 8-5 14-13 14z"/>
<glyph glyph-name="ic-v2-detail" unicode="&#57359;" d="M292 490c1 0 2 0 3 0 0 0 0 0 0 0 1 0 1 0 2 0 0-1 1-1 1-1 0 0 1 0 2 0 0 0 0 0 0-1 1 0 1 0 2 0 0 0 0-1 1-1 0 0 1 0 1-1 1 0 2-1 3-2l-2 2c0 0 0 0 0 0l2-2 123-122c1-1 1-1 2-2 0 0 0 0 0-1 1 0 1-1 1-1 0 0 1-1 1-1 0 0 0-1 1-2 0 0 0 0 0 0 0-1 0-1 0-2 0 0 1 0 1-1 0 0 0-1 0-1 0-2 0-3 0-4l0 3c0-1 0-2 0-3l0-245c0-33-27-61-62-61l-247 0c-34 0-62 28-62 61l0 327c0 34 28 61 62 61z m-21-41l-144 0c-11 0-21-9-21-20l0-327c0-11 10-20 21-20l247 0c12 0 21 9 21 20l0 225-103 0c-11 0-19 8-20 18l-1 2z m62-265c12 0 21-9 21-20 0-12-9-21-21-21l-165 0c-11 0-20 9-20 21 0 11 9 20 20 20z m0 82c12 0 21-9 21-21 0-11-9-20-21-20l-165 0c-11 0-20 9-20 20 0 12 9 21 20 21z m-123 81c11 0 20-9 20-20 0-11-9-20-20-20l-42 0c-11 0-20 9-20 20 0 11 9 20 20 20z m103 73l0-52 53 0z"/>
<glyph glyph-name="ic-v2-weblinks" unicode="&#57351;" d="M123 304c26 26 62 40 99 37 37-3 72-21 94-51 7-9 5-23-5-30-9-7-22-5-29 5-15 19-38 32-63 34-24 1-49-8-66-25l-64-64c-32-33-32-87 1-120 33-33 86-33 120-1l36 37c8 8 22 8 30 0 9-9 9-22 0-31l-37-36c-50-49-130-48-179 1-49 50-50 129-1 180z m150 149c50 49 130 48 179-1 49-50 50-129 1-180l-64-64c-26-26-62-40-99-37-37 3-72 21-94 51-7 9-5 23 5 30 9 7 22 5 29-5 15-19 38-32 63-34 24-1 49 8 66 25l64 64c32 33 32 87-1 120-33 32-86 33-120 1l-36-37c-9-8-22-8-30 0-9 9-9 22 0 31z"/>
<glyph glyph-name="ic-v2-user-management" unicode="&#57360;" d="M304 240c21 0 38-16 40-37l0-3 0-104c0-12-9-23-21-24l-3 0-8 0 0-48c0-12-9-23-21-24l-3 0-64 0c-12 0-23 9-24 21l0 3 0 48-8 0c-12 0-23 9-24 21l0 3 0 104c0 21 16 38 37 40l3 0z m0-32l-96 0c-4 0-7-3-8-6l0-2 0-96 8 0c12 0 23-9 24-21l0-3 0-48 48 0 0 48c0 12 9 23 21 24l3 0 8 0 0 96c0 4-4 8-8 8z m88 96c22 0 40-18 40-40l0-104c0-13-11-24-24-24l-8 0 0-48c0-13-11-24-24-24l-16 0c-9 0-16 7-16 16 0 9 7 16 16 16l8 0 0 48c0 13 11 24 24 24l8 0 0 96c0 4-4 8-8 8l-36 0c-9 0-16 7-16 16 0 9 7 16 16 16z m-236 0c9 0 16-7 16-16 0-9-7-16-16-16l-36 0c-4 0-8-4-8-8l0-96 8 0c13 0 24-11 24-24l0-48 8 0c9 0 16-7 16-16 0-9-7-16-16-16l-16 0c-13 0-24 11-24 24l0 48-8 0c-13 0-24 11-24 24l0 104c0 22 18 40 40 40z m316 64c22 0 40-18 40-40l0-104c0-13-11-24-24-24l-8 0 0-48c0-13-11-24-24-24l-8 0c-9 0-16 7-16 16 0 9 7 16 16 16l0 48c0 13 11 24 24 24l8 0 0 96c0 4-4 8-8 8l-36 0c-9 0-16 7-16 16 0 9 7 16 16 16z m-396 0c9 0 16-7 16-16 0-9-7-16-16-16l-36 0c-4 0-8-4-8-8l0-96 8 0c13 0 24-11 24-24l0-48c9 0 16-7 16-16 0-9-7-16-16-16l-8 0c-13 0-24 11-24 24l0 48-8 0c-13 0-24 11-24 24l0 104c0 22 18 40 40 40z m404 117c18-23 21-54 7-80-14-25-42-40-71-36-4-38-37-67-75-65-11-38-46-64-85-64-39 0-74 26-85 64-38-2-71 27-75 65-29-4-57 11-71 36-14 26-11 57 7 80 18 23 48 32 76 24 28-8 49-32 52-62 28 4 56-10 70-35 17 5 35 5 52 0 14 25 42 39 70 35 3 30 24 54 52 62 28 8 58-1 76-24z m-247-106l-4-2c-22-12-34-38-27-63 6-25 28-42 54-42 26 0 48 17 54 42 6 24-4 48-24 61l-3 2 0 0c-16 9-34 9-50 2z m111 37c-14 0-27-7-34-19 19-15 31-37 34-61 0 0 0 0 0 0 22 0 40 18 40 40 0 22-18 40-40 40z m-187-2c-17-4-29-20-29-38 0-22 18-40 40-40 0 0 0 0 0 0 3 24 15 46 34 61-10 15-28 22-45 17z m267 66c-11 0-22-5-30-13-7-9-11-20-10-31 12-9 22-20 27-34 15-5 32-1 42 11 11 12 14 29 8 43-7 15-21 24-37 24z m-355-5c-13-7-21-20-21-35 0-13 6-25 17-32 10-8 24-10 36-6 5 14 15 25 27 34 1 14-5 29-18 37-12 8-28 9-41 2z"/>
<glyph glyph-name="ic-v2-term-policy" unicode="&#57361;" d="M384 512c10 0 20-3 28-9 8-6 14-14 17-23l35 0c13 0 25-5 34-14 9-9 14-21 14-34l0-384c0-13-5-25-14-34-9-9-21-14-34-14l-272 0c-7 0-14 1-20 4-6 3-12 7-16 13-2-1-4-1-6-1-3 0-6 1-9 3l-15 9c-33 22-62 49-84 82-27 39-42 86-42 134l0 29c0 3 1 6 3 9 1 3 4 5 7 6l134 55 0 89c0 13 5 25 14 34 9 9 21 14 34 14l35 0c3 9 9 17 17 23 8 6 18 9 28 9z m-157-64l-35 0c-4 0-8-2-11-5-3-3-5-7-5-11l0-97 56-23 192 0c4 0 8-2 11-5 3-3 5-7 5-11 0-4-2-8-5-11-3-3-7-5-11-5l-125 0c1-2 1-5 1-7l0-25 124 0c4 0 8-2 11-5 3-3 5-7 5-11 0-4-2-8-5-11-3-3-7-5-11-5l-126 0c1 1-6-34-6-32l132 0c4 0 8-2 11-5 3-3 5-7 5-11 0-4-2-8-5-11-3-3-7-5-11-5l-143 0c-7-14-14-28-23-42-20-30-45-55-75-75 3-2 6-3 9-3l272 0c4 0 8 2 11 5 3 3 5 7 5 11l0 384c0 4-2 8-5 11-3 3-7 5-11 5l-35 0c-3-9-9-17-17-23-8-6-18-9-28-9l-112 0c-10 0-20 3-28 9-8 6-14 14-17 23z m-77-138l-118-48 0-18c0-41 13-82 37-116 20-29 45-54 75-73l6-4 7 4c29 19 55 44 75 73 23 34 36 75 36 116l0 18z m234 170l-112 0c-4 0-8-2-11-5-3-3-5-7-5-11 0-4 2-8 5-11 3-3 7-5 11-5l112 0c4 0 8 2 11 5 3 3 5 7 5 11 0 4-2 8-5 11-3 3-7 5-11 5z"/>
<glyph glyph-name="ic-v2-enrollment-form" unicode="&#57362;" d="M406 512c8 0 14-6 15-13l0-2 0-102 14 15c18 17 46 17 64 0 17-17 17-44 2-61l-2-3-78-78 0-193c0-8-6-14-13-15l-2 0-45 0 0-45c0-8-6-14-13-15l-2 0-331 0c-8 0-14 6-15 13l0 2 0 422c0 8 6 14 13 15l2 0 84 0 55 56c3 2 6 3 9 4l2 0z m-337-90l-39 0 0-392 301 0 0 30-256 0c-8 0-14 6-15 13l0 2 0 332c0 3 1 6 3 9l1 2z m322 60l-211 0 0-75c0-8-6-14-13-15l-2 0-75 0 0-302 301 0 0 148-53-53c-19-19-44-31-71-34l-6 0-24-25c-6-5-16-5-22 0-5 6-5 14-1 20l1 2 25 24c2 27 12 52 30 72l4 5 117 116z m-112-277c-3-7-6-15-8-23 7 1 13 3 19 6l4 2z m124 130l-106-106 22-21 106 106z m55 55l-2-2-31-31 21-22 32 32c6 6 6 15 0 21-6 6-14 6-20 2z m-112 2c8 0 15-7 15-15 0-8-6-14-13-15l-2 0-120 0c-8 0-15 7-15 15 0 8 6 14 13 15l2 0z m0 60c8 0 15-7 15-15 0-8-6-14-13-15l-2 0-120 0c-8 0-15 7-15 15 0 8 6 14 13 15l2 0z m-196 9l-39-39 39 0z"/>
<glyph glyph-name="ic-v2-gamification-achievement" unicode="&#57363;" d="M105 512c3 0 5-1 8-3 2-1 4-3 5-5 1-2 2-4 2-6l0-2 0-131c4 0 9-2 13-3l4-2 74-40 45 0c-16 0-31 5-44 13-14 9-24 22-30 36-6 15-8 31-4 47 3 15 10 29 21 41 12 11 26 18 41 21 16 4 32 2 47-4 14-6 27-16 36-30 8-13 13-28 13-44 0-21-8-42-23-57-15-15-36-23-57-23l45 0 74 40c4 2 8 3 13 4l4 1 0 131c0 3 1 5 2 8 1 2 3 4 5 5 3 2 5 3 8 3 2 0 3 0 5-1l3 0 88-40c2-2 5-4 6-6 2-3 3-6 3-9 0-3-1-6-2-8-2-2-3-4-5-5l-2-1-79-38 0-46c8-4 14-11 18-20 4-10 5-21 3-31-3-10-8-18-15-24l-3-3-99-72 0-48 40 0c6 0 12-3 17-7 4-4 6-9 7-14l0-3 0-40 96 0c6 0 12-3 17-7 4-4 6-9 7-14l0-3 0-48c0-6-3-12-7-17-4-4-9-6-14-7l-3 0-464 0c-6 0-12 3-17 7-4 4-6 9-7 14l0 3 0 48c0 6 3 12 7 17 4 4 9 6 14 7l3 0 96 0 0 40c0 6 3 12 7 17 4 4 9 6 14 7l3 0 40 0 0 48-99 72c-8 7-15 16-17 27-3 10-2 21 2 31 4 7 9 14 15 18l3 2 0 46-79 38c-3 1-5 3-7 6-1 2-2 5-2 8 0 3 1 6 3 9 1 2 2 3 4 4l2 2 88 40c3 1 5 1 8 1z m15-448l-88 0 0-32 88 0z m240 64l-208 0 0-96 208 0z m120-64l-88 0 0-32 88 0z m-82 270l-2 0c-1 0-3-1-4-1l-2-1-78-42c-1-1-3-1-5-2l-2 0-98 0c-2 0-3 0-5 1l-2 1-78 42c-2 1-4 1-6 2-2 0-5 0-7-1-2 0-4-1-5-3-2-1-3-3-4-5-2-3-2-7-1-10 0-3 2-6 4-8l1-1 99-72c4-3 7-7 10-12 1-3 2-7 3-11l0-3 0-48 80 0 0 48c0 5 1 10 3 14 2 4 5 7 8 10l2 2 99 72c3 2 5 5 5 9 1 3 1 7-1 10-1 2-2 4-4 5-1 2-3 3-5 3l-2 1z m-124 110c-8 4-18 5-27 3-10-2-18-6-25-13-7-7-11-15-13-25-2-9-1-19 3-27 3-9 9-17 17-22 8-5 18-8 27-8 13 0 25 5 34 14 9 9 14 21 14 34 0 9-3 19-8 27-5 8-13 14-22 17z m150 27l0-32 34 17z m-336 0l-34-15 34-17z"/>
<glyph glyph-name="ic-v2-gamification-achievement-group" unicode="&#57364;" d="M417 240c46 1 58-68 14-81l-103-35 0-92c0-8-3-17-9-23-6-6-15-9-23-9l-80 0c-8 0-17 3-23 9-6 6-9 15-9 23l0 92-103 35c-44 13-32 82 14 81z m0-32l-322 0c-3 0-5-1-7-2-1-2-3-4-3-6 0-2 0-5 1-7 1-2 3-3 6-4l102-34c6-2 12-6 16-12 4-5 6-12 6-19l0-92 80 0 0 92c0 7 2 14 6 19 4 6 10 10 16 12l103 34c1 0 2 1 3 2 1 1 2 3 3 4 0 1 0 3 0 4 0 2-1 3-2 5-1 1-2 2-3 3-1 1-3 1-5 1z m-177 190c16 4 32 2 47-4 14-6 27-16 36-30 8-13 13-28 13-44 0-21-8-42-23-57-15-15-36-23-57-23-16 0-31 5-44 13-14 9-24 22-30 36-6 15-8 31-4 47 3 15 10 29 21 41 12 11 26 18 41 21z m34-34c-8 4-18 5-27 3-10-2-18-6-25-13-7-7-11-15-13-25-2-9-1-19 3-27 3-9 9-17 17-22 8-5 18-8 27-8 13 0 25 5 34 14 9 9 14 21 14 34 0 9-3 19-8 27-5 8-13 14-22 17z m-154 20c6 0 12-3 17-7 4-5 7-11 7-17l0-64c0-6-3-12-7-17-5-4-11-7-17-7l-64 0c-6 0-12 3-17 7-4 5-7 11-7 17l0 64c0 6 3 12 7 17 5 4 11 7 17 7z m304 0c3 0 6-1 8-2 3-2 5-4 6-7l40-80c2-2 2-5 2-8 0-2-1-5-2-7-2-3-4-5-6-6-3-1-5-2-8-2l-80 0c-3 0-5 1-8 2-2 1-4 3-6 6-1 2-2 5-2 7 0 3 0 6 2 8l40 80c1 3 3 5 6 7 2 1 5 2 8 2z m-312-32l-48 0 0-48 48 0z m312-20l-14-28 28 0z m-80 177c6 0 12-3 17-7l25-25c4-5 7-11 7-17 0-6-3-12-7-17l-25-25c-5-4-11-7-17-7-6 0-12 3-17 7l-25 25c-4 5-7 11-7 17 0 6 3 12 7 17l25 25c5 4 11 7 17 7z m-194-1c8 4 18 5 27 3 10-2 18-6 25-13 7-7 11-15 13-25 2-9 1-19-3-27-3-9-9-17-17-22-8-5-18-8-27-8-13 0-25 5-34 14-9 9-14 21-14 34 0 9 3 19 8 27 5 8 13 14 22 17z m194-35l-13-13 13-13 13 13z m-176 7c-4 0-8-2-11-5-3-3-5-7-5-11 0-3 1-6 3-9 1-3 4-5 7-6 3-1 6-1 9-1 3 1 6 2 8 5 3 2 4 5 5 8 0 3 0 6-1 9-1 3-3 6-6 7-3 2-6 3-9 3z"/>
<glyph glyph-name="ic-v2-report-management" unicode="&#57365;" d="M288 344c8 0 17-3 23-9 6-6 9-15 9-23l0-280c0-8-3-17-9-23-6-6-15-9-23-9l-64 0c-8 0-17 3-23 9-6 6-9 15-9 23l0 280c0 8 3 17 9 23 6 6 15 9 23 9z m-160-168c8 0 17-3 23-9 6-6 9-15 9-23l0-112c0-8-3-17-9-23-6-6-15-9-23-9l-64 0c-8 0-17 3-23 9-6 6-9 15-9 23l0 112c0 8 3 17 9 23 6 6 15 9 23 9z m320 56c8 0 17-3 23-9 6-6 9-15 9-23l0-168c0-8-3-17-9-23-6-6-15-9-23-9l-64 0c-8 0-17 3-23 9-6 6-9 15-9 23l0 168c0 8 3 17 9 23 6 6 15 9 23 9z m-160 80l-64 0 0-280 64 0z m-160-168l-64 0 0-112 64 0z m320 56l-64 0 0-168 64 0z m-197 312c8 1 16 0 23-3 7-3 14-8 19-14 5-6 8-13 10-21 2-7 1-15-1-23l86-60c9 7 21 10 32 9 11-1 22-6 30-14 8-8 13-19 14-30 1-11-2-22-8-32-7-9-17-16-28-19-11-3-22-1-32 3-11 5-19 14-24 24-4 10-5 22-2 33l-86 60c-7-5-15-8-23-9-9-1-17 1-25 4l-97-102c3-8 5-16 5-24 0-8-3-16-7-23-4-7-10-13-18-17-7-4-15-6-23-6-7 0-14 2-21 5-6 3-12 7-16 13-5 5-8 12-10 19-1 7-1 14 0 21 2 7 5 14 9 19 4 6 10 11 16 14 7 3 14 5 21 5 7 0 14-1 21-4l97 102c-3 7-5 15-5 23 0 8 2 15 6 22 4 7 9 13 15 17 7 4 14 7 22 8z m-155-200c-4 0-8-2-11-5-3-3-5-7-5-11 0-3 1-6 3-9 1-3 4-5 7-6 3-1 6-1 9-1 3 1 6 2 8 5 3 2 4 5 5 8 0 3 0 6-1 9-1 3-3 6-6 7-3 2-6 3-9 3z m320 56c-3 0-6-1-9-3-3-1-5-4-6-7-1-3-1-6-1-9 1-3 2-6 5-8 2-3 5-4 8-5 3 0 6 0 9 1 3 1 6 3 7 6 2 3 3 6 3 9 0 4-2 8-5 11-3 3-7 5-11 5z m-160 112c-4 0-8-2-11-5-3-3-5-7-5-11 0-3 1-6 3-9 1-3 4-5 7-6 3-1 6-1 9-1 3 1 6 2 8 5 3 2 4 5 5 8 0 3 0 6-1 9-1 3-3 6-6 7-3 2-6 3-9 3z"/>
<glyph glyph-name="ic-v2-download-manual" unicode="&#57366;" d="M279 512c1 0 2 0 3 0 0 0 1 0 1 0 1 0 1-1 2-1l1 0c1 0 1 0 2-1 0 0 0 0 1 0 0 0 1-1 1-1 1 0 1 0 1 0 1-1 1-1 2-2l1 0c0 0 0 0 0 0l0 0 0-1 2-1 163-163c0 0 1-1 2-2 0 0 0 0 0 0 0-1 1-2 1-2l1-1c0-1 0-1 1-2 0 0 0 0 0-1 0 0 0-1 1-2l0 0c0-1 0-2 0-3l0-1 0-2 0-256c0-39-31-70-69-70l-280 0c-38 0-69 31-69 70l0 372c0 39 31 70 69 70z m-23-47l-140 0c-12 0-23-10-23-23l0-372c0-13 11-23 23-23l280 0c12 0 23 10 23 23l0 233-140 0c-12 0-21 9-23 20l0 3z m47-32l0-84 83 0z"/>
<glyph glyph-name="ic-v2-create" unicode="&#57367;" d="M256 512c141 0 256-115 256-256 0-141-115-256-256-256-141 0-256 115-256 256 0 141 115 256 256 256z m0-47c-116 0-209-93-209-209 0-116 93-209 209-209 116 0 209 93 209 209 0 116-93 209-209 209z m0-93c13 0 23-10 23-23l0-70 70 0c12 0 22-9 23-20l0-3c0-13-10-23-23-23l-70 0 0-70c0-12-9-22-20-23l-3 0c-13 0-23 10-23 23l0 70-70 0c-12 0-22 9-23 20l0 3c0 13 10 23 23 23l70 0 0 70c0 12 9 22 20 23z"/>
<glyph glyph-name="ic-v2-hide" unicode="&#57368;" d="M40 505l465-465c9-9 9-24 0-33-9-9-24-9-33 0l-93 93c-37-23-79-36-123-37-72 0-135 35-189 92-18 20-34 41-48 62-8 13-14 23-17 29-3 6-3 14 1 21 23 44 55 84 93 116l-89 89c-9 9-9 24 0 33 9 9 24 9 33 0z m89-155c-32-26-58-58-79-94 2-4 5-9 8-14 12-19 27-37 43-55 46-48 98-77 155-77 31 1 62 9 89 24l-46 46c-20-12-43-15-66-10-31 8-55 32-63 63-5 23-2 46 10 66z m127 99c72 0 135-35 189-92 18-20 34-41 48-62 8-13 14-23 17-29 3-6 3-14-1-21-13-25-30-49-48-71-8-10-23-12-33-3-10 8-11 23-3 32 14 17 26 34 37 53-2 4-5 9-8 14-12 19-27 37-43 55-46 48-98 77-155 77-13 0-26-2-39-5-13-2-25 5-28 18-3 12 5 25 17 28 17 4 33 6 50 6z m-41-185c-1-7-1-13 0-20 4-14 15-25 29-29 7-1 13-1 20 0z"/>
<glyph glyph-name="ic-v2-print" unicode="&#57369;" d="M396 512c12 0 23-10 23-23l0-140 23 0c37 0 68-29 70-66l0-120c0-39-31-70-70-70l-23 0 0-70c0-13-11-23-23-23l-280 0c-12 0-23 10-23 23l0 70-23 0c-37 0-68 29-70 66l0 120c0 39 31 70 70 70l23 0 0 140c0 12 9 21 21 23l2 0z m-24-326l-232 0 0-140 232 0z m70 116l-372 0c-13 0-23-10-23-23l0-116c0-13 10-23 23-23l23 0 0 69c0 13 11 24 23 24l280 0c12 0 23-11 23-24l0-69 23 0c12 0 22 9 23 20l0 3 0 116c0 13-10 23-23 23z m-70 163l-232 0 0-116 232 0z"/>
<glyph glyph-name="ic-v2-chevron-down" unicode="&#57370;" d="M113 335c8 8 22 8 30 0l113-113 113 113c8 8 22 8 30 0 8-8 8-22 0-30l-128-128c-8-8-22-8-30 0l-128 128c-8 8-8 22 0 30z"/>
<glyph glyph-name="ic-v2-chevron-up" unicode="&#57371;" d="M241 335c8 8 22 8 30 0l128-128c8-8 8-22 0-30-8-8-22-8-30 0l-113 113-113-113c-8-8-22-8-30 0-8 8-8 22 0 30z"/>
<glyph glyph-name="ic-v2-chevron-left" unicode="&#57372;" d="M335 399c8-8 8-22 0-30l-113-113 113-113c8-8 8-22 0-30-8-8-22-8-30 0l-128 128c-8 8-8 22 0 30l128 128c8 8 22 8 30 0z"/>
<glyph glyph-name="ic-v2-chevron-right" unicode="&#57373;" d="M177 399c8 8 22 8 30 0l128-128c8-8 8-22 0-30l-128-128c-8-8-22-8-30 0-8 8-8 22 0 30l113 113-113 113c-8 8-8 22 0 30z"/>
<glyph glyph-name="ic-v2-calendar" unicode="&#57374;" d="M348 481c11 0 21-9 21-20l0-21 41 0c34 0 61-27 61-61l0-287c0-34-27-61-61-61l-287 0c-34 0-62 27-62 61l0 287c0 34 28 61 62 61l41 0 0 21c0 10 8 19 18 20l2 0c12 0 21-9 21-20l0-21 123 0 0 21c0 10 8 19 18 20z m82-205l-328 0 0-184c0-11 10-20 21-20l287 0c11 0 20 9 20 20z m-266 123l-41 0c-11 0-21-9-21-20l0-62 328 0 0 62c0 11-9 20-20 20l-41 0 0-20c0-11-8-19-18-20l-3-1c-11 0-20 10-20 21l0 20-123 0 0-20c0-11-8-19-18-20l-3-1c-11 0-20 10-20 21z"/>
<glyph glyph-name="ic-v2-done" unicode="&#57375;" d="M330 491c15 0 27-8 32-21l28 0c33 0 60-26 60-58l0-313c0-32-27-58-60-58l-248 0c-34 0-60 26-60 58l0 313c0 32 26 58 60 58l29 0c5 13 18 21 32 21z m60-58l-33 0c-6-7-16-12-27-12l-127 0c-11 0-21 5-27 12l-34 0c-12 0-21-8-22-19l0-2 0-313c0-11 8-20 19-21l3 0 248 0c11 0 21 8 22 19l0 2 0 313c0 11-9 20-20 21z m-56-102c8 8 21 8 30 0 8-8 8-21 0-29l-104-101c-4-3-10-5-15-5-5 0-11 2-15 5l-62 61c-8 8-8 21 0 28 8 8 21 8 30 0l47-46z m-21 140l-93 0c-8 0-15-7-15-15 0-8 6-14 13-15l2 0 93 0c8 0 15 7 15 15 0 8-7 15-15 15z"/>
<glyph glyph-name="ic-v2-expiry-period" unicode="&#57376;" d="M278 458c9 0 16-7 17-16l0-3 0-18 100 0c8 0 16-7 17-16l0-3 0-121c38-11 66-47 66-90 0-43-28-79-66-90l0-34c0-9-7-17-15-18l-2-1-350 0c-9 0-16 8-18 17l0 2 0 335c0 10 7 18 16 19l2 0 99 0 0 18c0 11 8 19 17 19 9 0 17-7 18-16l0-3 0-18 81 0 0 18c0 11 8 19 18 19z m99-149l-315 0 0-223 315 0 0 13c-44 6-77 45-77 92 0 47 33 86 77 92z m12-54c-34 0-62-29-62-64 0-35 28-64 62-64 34 0 61 29 61 64 0 35-27 64-61 64z m-1-23c4 0 7-3 7-7l0-40 25-13c3-2 5-6 3-10-2-4-6-5-10-3l-28 15c-3 1-4 3-4 6l0 45c0 4 3 7 7 7z m-11 152l-315 0 0-38 315 0z"/>
</font>
</defs>
</svg>
